<?xml version="1.0" standalone="no"?>
<!DOCTYPE svg PUBLIC "-//W3C//DTD SVG 1.1//EN" "http://www.w3.org/Graphics/SVG/1.1/DTD/svg11.dtd" >
<svg xmlns="http://www.w3.org/2000/svg" xmlns:xlink="http://www.w3.org/1999/xlink" version="1.1">
<metadata>
Created by FontForge 20170731 at Sat Jul  1 12:55:44 2023
 By Aleksey,,,
Copyright (c) 1990, 2002 Adobe Systems Incorporated.  All Rights Reserved. (c) 1981, 2002 Heidelberger Druckmaschinen AG. All rights reserved.
</metadata>
<defs>
<font id="font__helvetica-rounded-lt-st--300" horiz-adv-x="872" >
  <font-face 
    font-family="font__helvetica-rounded-lt-st"
    font-weight="300"
    font-stretch="condensed"
    units-per-em="2048"
    panose-1="2 11 4 6 2 2 2 3 2 4"
    ascent="1462"
    descent="-586"
    x-height="1087"
    cap-height="1462"
    bbox="-342 -418 2048 1898"
    underline-thickness="102"
    underline-position="-307"
    unicode-range="U+0020-FB02"
  />
<missing-glyph horiz-adv-x="1024" 
d="M0 0v1434h1024v-1434h-1024zM512 809l348 522h-696zM573 717l349 -522v1044zM164 102h696l-348 523zM102 1239v-1044l349 522z" />
    <glyph glyph-name="fi" unicode="fi" 
d="M623 0v1087h122v-1087h-122zM623 1253v209h122v-209h-122zM164 0v985h-150v102h150v130q0 50 4.5 85.5t19.5 71t40 57t68.5 35t104.5 13.5q43 0 78 -6v-103q-27 6 -59 6q-70 0 -101.5 -34.5t-31.5 -124.5v-130h192v-102h-192v-985h-123z" />
    <glyph glyph-name="fl" unicode="fl" 
d="M623 0v1462h122v-1462h-122zM164 0v985h-150v102h150v130q0 50 4.5 85.5t19.5 71t40 57t68.5 35t104.5 13.5q43 0 78 -6v-103q-27 6 -59 6q-70 0 -101.5 -34.5t-31.5 -124.5v-130h192v-102h-192v-985h-123z" />
    <glyph glyph-name=".notdef" horiz-adv-x="1024" 
d="M0 0v1434h1024v-1434h-1024zM512 809l348 522h-696zM573 717l349 -522v1044zM164 102h696l-348 523zM102 1239v-1044l349 522z" />
    <glyph glyph-name=".null" horiz-adv-x="0" 
 />
    <glyph glyph-name="nonmarkingreturn" horiz-adv-x="682" 
 />
    <glyph glyph-name="space" unicode=" " horiz-adv-x="491" 
 />
    <glyph glyph-name="exclam" unicode="!" horiz-adv-x="491" 
d="M176 999v463h139v-463l-24 -618h-90zM176 0v209h139v-209h-139z" />
    <glyph glyph-name="quotedbl" unicode="&#x22;" horiz-adv-x="720" 
d="M145 971v491h123v-491h-123zM453 971v491h122v-491h-122z" />
    <glyph glyph-name="numbersign" unicode="#" horiz-adv-x="983" 
d="M387 872l-41 -319h250l41 319h-250zM6 463v90h238l41 319h-226v91h238l61 462h103l-62 -462h250l62 462h102l-61 -462h225v-91h-238l-41 -319h226v-90h-238l-61 -463h-103l62 463h-250l-62 -463h-102l61 463h-225z" />
    <glyph glyph-name="dollar" unicode="$" horiz-adv-x="983" 
d="M449 811v528q-111 -12 -172.5 -82t-61.5 -172q0 -59 17.5 -104.5t52 -77t73 -52.5t91.5 -40zM539 657v-571q117 12 185.5 85t68.5 202q0 50 -14 91t-35.5 68.5t-57 52t-68 40t-79.5 32.5zM59 399v41h131v-53q0 -132 67 -212t192 -89v602q-54 16 -91 29t-83.5 35t-77 49.5
t-58.5 65.5t-41.5 90t-13.5 116q0 160 97 262t268 115v145h90v-145q346 -26 346 -389h-131q0 122 -54 194t-161 84v-559q152 -50 212 -84q146 -82 169 -237q4 -31 4 -66q0 -188 -103 -295.5t-282 -122.5v-170h-90v170q-190 11 -290 117.5t-100 306.5z" />
    <glyph glyph-name="percent" unicode="%" horiz-adv-x="1478" 
d="M219 1073q0 -287 148 -287q71 0 109 65.5t38 221.5q0 155 -38 221t-109 66q-148 0 -148 -287zM373 -25l628 1475h103l-629 -1475h-102zM965 352q0 -155 38.5 -220.5t108.5 -65.5q71 0 109.5 65t38.5 221q0 155 -38.5 221t-109.5 66q-147 0 -147 -287zM109 1073
q0 109 17 183.5t51 116.5t80 59.5t110 17.5t110 -17.5t80 -59.5t51 -116.5t17 -183.5t-17 -183.5t-51 -116.5t-80 -59.5t-110 -17.5t-110 17.5t-80 59.5t-51 116.5t-17 183.5zM854 352q0 109 17 183.5t51 116.5t80 59.5t110 17.5t110 -17.5t80 -59.5t51 -116.5t17 -183.5
t-17 -183.5t-51 -116.5t-80 -59.5t-110 -17.5t-110 17.5t-80 59.5t-51 116.5t-17 183.5z" />
    <glyph glyph-name="ampersand" unicode="&#x26;" horiz-adv-x="1099" 
d="M973 0l-129 178q-135 -203 -389 -203q-185 0 -297.5 111t-112.5 276q0 215 211 377l121 92q-85 112 -126.5 196t-41.5 165q0 127 85.5 198.5t213.5 71.5q127 0 203.5 -74t76.5 -196q0 -98 -55.5 -185.5t-202.5 -191.5l316 -442q50 121 53 276h123q0 -198 -102 -379
l192 -270h-139zM332 1196q0 -112 137 -297q112 85 154.5 156.5t42.5 140.5q0 70 -47.5 117t-118.5 47q-72 0 -120 -47t-48 -117zM780 270l-342 480q-146 -101 -204 -190t-58 -183q0 -128 86.5 -209.5t210.5 -81.5q92 0 178.5 50.5t128.5 133.5z" />
    <glyph glyph-name="quotesingle" unicode="'" horiz-adv-x="491" 
d="M184 971v491h123v-491h-123z" />
    <glyph glyph-name="parenleft" unicode="(" horiz-adv-x="454" 
d="M383 1462h88q-238 -415 -238 -919q0 -505 238 -920h-88q-272 444 -272 920q0 475 272 919z" />
    <glyph glyph-name="parenright" unicode=")" horiz-adv-x="454" 
d="M72 -377h-88q237 413 237 920q0 506 -237 919h88q272 -444 272 -919q0 -476 -272 -920z" />
    <glyph glyph-name="asterisk" unicode="*" horiz-adv-x="684" 
d="M297 1462h90v-227l217 70l27 -86l-215 -70l133 -184l-74 -54l-133 185l-133 -185l-74 54l133 184l-215 70l27 86l217 -70v227z" />
    <glyph glyph-name="plus" unicode="+" horiz-adv-x="1228" 
d="M563 0v467h-467v102h467v467h103v-467h467v-102h-467v-467h-103z" />
    <glyph glyph-name="comma" unicode="," horiz-adv-x="491" 
d="M176 0v209h139v-209q0 -50 -6 -89.5t-21.5 -79t-46.5 -68.5t-77 -46v82q39 24 54.5 70t17.5 131h-60z" />
    <glyph glyph-name="hyphen" unicode="-" horiz-adv-x="681" 
d="M119 637h444v-111h-444v111z" />
    <glyph glyph-name="period" unicode="." horiz-adv-x="491" 
d="M176 0v209h139v-209h-139z" />
    <glyph glyph-name="slash" unicode="/" horiz-adv-x="569" 
d="M479 1487h111l-500 -1512h-110z" />
    <glyph glyph-name="zero" unicode="0" horiz-adv-x="983" 
d="M215 713q0 -347 63.5 -491t213.5 -144t213 144t63 491t-63 491t-213 144t-213.5 -144t-63.5 -491zM84 713q0 136 10.5 242t38 201.5t73 158t117.5 99t169 36.5t169 -36.5t117 -99t72.5 -158t38 -201.5t10.5 -242t-10.5 -242t-38 -202t-72.5 -158.5t-117 -99t-169 -36.5
t-169 36.5t-117.5 99t-73 158.5t-38 202t-10.5 242z" />
    <glyph glyph-name="one" unicode="1" horiz-adv-x="983" 
d="M471 0v1110h-332v90q178 1 266.5 66.5t94.5 183.5h94v-1450h-123z" />
    <glyph glyph-name="two" unicode="2" horiz-adv-x="983" 
d="M227 995h-131q3 216 106.5 335.5t303.5 119.5q76 0 142 -23t119 -69.5t83.5 -123.5t30.5 -177q0 -135 -52 -234.5t-188 -212.5l-158 -129q-121 -100 -179.5 -180.5t-74.5 -189.5h664v-111h-803q0 117 36.5 216t100 177.5t166.5 165.5l156 131q109 93 155 175t46 186
q0 141 -70 219t-186 78q-255 0 -267 -353z" />
    <glyph glyph-name="three" unicode="3" horiz-adv-x="983" 
d="M383 702v103h68q131 0 202.5 70.5t71.5 199.5q0 128 -61.5 200.5t-178.5 72.5q-114 0 -184.5 -75.5t-71.5 -223.5h-131q0 186 99.5 293.5t287.5 107.5q169 0 270 -96t101 -262q0 -124 -59 -212t-174 -116v-4q127 -18 201.5 -113t74.5 -231q0 -201 -108 -321t-308 -120
q-189 0 -293.5 105.5t-111.5 306.5h131q0 -135 70.5 -222t203.5 -87q58 0 107 18.5t90 56.5t64.5 104.5t23.5 154.5q0 139 -77.5 214.5t-211.5 75.5h-96z" />
    <glyph glyph-name="four" unicode="4" horiz-adv-x="983" 
d="M625 0v373h-559v123l559 954h123v-967h170v-110h-170v-373h-123zM176 483h449v758h-4z" />
    <glyph glyph-name="five" unicode="5" horiz-adv-x="983" 
d="M197 1425h634v-110h-536l-64 -506l5 -4q39 75 116 111t164 36q174 0 278.5 -122.5t104.5 -356.5q0 -226 -111 -362t-319 -136q-173 0 -279 104.5t-106 291.5h131q0 -128 71 -210.5t197 -82.5q133 0 209 107.5t76 308.5q0 159 -71.5 257.5t-211.5 98.5q-86 0 -153 -42
t-96 -126h-123z" />
    <glyph glyph-name="six" unicode="6" horiz-adv-x="983" 
d="M874 1110h-131q-5 108 -64.5 173t-164.5 65q-154 0 -227.5 -153.5t-77.5 -506.5l4 -4q36 113 116 175.5t195 62.5q184 0 282.5 -122.5t98.5 -328.5q0 -142 -41.5 -251t-134 -177t-227.5 -68q-98 0 -170 29.5t-121 84.5t-78.5 142t-42 194t-12.5 249q0 149 12.5 264
t43 213.5t80.5 162.5t126.5 100t179.5 36q167 0 259 -93t95 -247zM233 449q0 -73 15 -137t45.5 -117.5t84.5 -85t126 -31.5q58 0 105 21t77 56t50.5 83.5t29 100.5t8.5 110q0 73 -14.5 136.5t-44.5 117.5t-84.5 85t-126.5 31t-126 -31t-84.5 -84.5t-45.5 -117.5t-15 -137z
" />
    <glyph glyph-name="seven" unicode="7" horiz-adv-x="983" 
d="M84 1315v110h815v-110q-149 -184 -264.5 -422t-177.5 -464t-78 -429h-139q17 302 170 680t366 635h-692z" />
    <glyph glyph-name="eight" unicode="8" horiz-adv-x="983" 
d="M215 399q0 -138 72.5 -229.5t204.5 -91.5t204 91.5t72 229.5q0 139 -72 231.5t-204 92.5t-204.5 -92.5t-72.5 -231.5zM84 410q0 138 68 241.5t194 116.5v4q-102 26 -160.5 118.5t-58.5 201.5q0 173 100.5 265.5t264.5 92.5q165 0 264.5 -92.5t99.5 -265.5
q0 -110 -58 -202t-161 -118v-4q126 -13 194 -116.5t68 -241.5q0 -203 -111 -319t-296 -116q-184 0 -296 116t-112 319zM258 1085q0 -119 60 -189.5t174 -70.5q115 0 174 70t59 190q0 121 -59 192t-174 71q-114 0 -174 -71t-60 -192z" />
    <glyph glyph-name="nine" unicode="9" horiz-adv-x="983" 
d="M109 315h131q5 -108 64.5 -172.5t164.5 -64.5q154 0 227.5 153t77.5 506l-4 4q-35 -113 -115.5 -175t-195.5 -62q-184 0 -282.5 122.5t-98.5 327.5q0 142 41.5 251t134 177t227.5 68q98 0 170 -29.5t121 -84t78.5 -141.5t42 -194t12.5 -249q0 -149 -12.5 -264t-43 -214
t-80.5 -163t-126.5 -100t-179.5 -36q-167 0 -259 93t-95 247zM209 977q0 -58 8.5 -110t29 -100.5t50.5 -83.5t77 -56t105 -21q72 0 126 31.5t84.5 85t45.5 117.5t15 137t-15 137t-45.5 117.5t-84.5 85t-126 31.5q-58 0 -105 -21t-77 -56t-50.5 -83.5t-29 -100.5t-8.5 -110z
" />
    <glyph glyph-name="colon" unicode=":" horiz-adv-x="491" 
d="M176 817v209h139v-209h-139zM176 0v209h139v-209h-139z" />
    <glyph glyph-name="semicolon" unicode=";" horiz-adv-x="491" 
d="M176 0v209h139v-209q0 -50 -6 -89.5t-21.5 -79t-46.5 -68.5t-77 -46v82q39 24 54.5 70t17.5 131h-60zM176 817v209h139v-209h-139z" />
    <glyph glyph-name="less" unicode="&#x3c;" horiz-adv-x="1228" 
d="M96 463v110l1037 480v-111l-914 -424l914 -424v-110z" />
    <glyph glyph-name="equal" unicode="=" horiz-adv-x="1228" 
d="M96 666v102h1037v-102h-1037zM96 268v103h1037v-103h-1037z" />
    <glyph glyph-name="greater" unicode="&#x3e;" horiz-adv-x="1228" 
d="M96 -16v110l914 424l-914 424v111l1037 -480v-110z" />
    <glyph glyph-name="question" unicode="?" 
d="M467 379h-123v72q0 112 27.5 177t107.5 150l86 92q107 115 107 260q0 110 -63.5 182t-166.5 72q-130 0 -196 -88.5t-66 -255.5h-131q1 130 41.5 229t128.5 158.5t215 59.5q169 0 269 -99t100 -260q0 -87 -29 -164t-104 -157l-88 -94q-64 -67 -89.5 -127.5t-25.5 -149.5
v-57zM336 0v209h139v-209h-139z" />
    <glyph glyph-name="at" unicode="@" horiz-adv-x="1638" 
d="M498 590q0 -98 43.5 -153.5t132.5 -55.5q78 0 151 51.5t121.5 128t77.5 162t29 156.5q0 101 -42 148.5t-134 47.5q-64 0 -124 -31.5t-105 -83t-79.5 -115t-52.5 -130t-18 -125.5zM1120 1008l51 135h117l-209 -602q-26 -80 -26 -121q0 -24 14.5 -37.5t40.5 -13.5
q87 0 173.5 79t139 194.5t52.5 221.5q0 156 -87.5 279.5t-226.5 188.5t-299 65q-147 0 -277.5 -54.5t-221 -145.5t-143 -212.5t-52.5 -253.5q0 -136 54 -259t146.5 -212t221.5 -141.5t272 -52.5q169 0 325 76.5t238 205.5h123q-104 -171 -290 -272t-396 -101
q-166 0 -315 60.5t-254 162t-166.5 241t-61.5 292.5q0 155 63.5 295t170.5 241t254 160.5t309 59.5q197 0 360.5 -80.5t259 -225t95.5 -323.5q0 -114 -45 -222.5t-114.5 -185.5t-156.5 -124t-169 -47q-62 0 -101.5 35t-38.5 104h-4q-74 -72 -140.5 -105.5t-148.5 -33.5
q-121 0 -195.5 81.5t-74.5 219.5q0 85 23.5 171t68.5 162t105 135.5t139 94.5t164 35q168 0 229 -170h4z" />
    <glyph glyph-name="A" unicode="A" horiz-adv-x="1024" 
d="M285 537h454l-225 823h-4zM-2 0l432 1462h164l432 -1462h-139l-119 426h-512l-119 -426h-139z" />
    <glyph glyph-name="B" unicode="B" horiz-adv-x="1024" 
d="M246 1352v-533h207q327 0 327 266q0 143 -74 205t-231 62h-229zM246 709v-598h243q338 0 338 299t-338 299h-243zM115 0v1462h403q203 0 298 -97t95 -269q0 -112 -59.5 -201.5t-165.5 -116.5v-4q133 -26 202.5 -122.5t69.5 -241.5q0 -192 -117.5 -301t-324.5 -109h-401z
" />
    <glyph glyph-name="C" unicode="C" horiz-adv-x="1062" 
d="M872 496h132q-14 -251 -126.5 -386t-308.5 -135q-467 0 -467 756t467 756q108 0 190.5 -36.5t131.5 -99.5t73.5 -142.5t24.5 -172.5h-131q0 153 -75.5 246.5t-213.5 93.5q-108 0 -180.5 -61.5t-114 -207t-41.5 -376.5t41.5 -376.5t114 -207t180.5 -61.5q136 0 214 109
t89 301z" />
    <glyph glyph-name="D" unicode="D" horiz-adv-x="1099" 
d="M115 0v1462h352q106 0 187 -20.5t139.5 -63.5t98 -102t62.5 -144t33 -181t10 -220t-10 -220t-33 -181t-62.5 -144t-98 -102t-139.5 -63.5t-187 -20.5h-352zM246 1352v-1241h213q148 0 234.5 55.5t129.5 190.5t43 372q0 239 -43 375t-129.5 192t-234.5 56h-213z" />
    <glyph glyph-name="E" unicode="E" horiz-adv-x="909" 
d="M115 0v1462h725v-110h-594v-533h555v-110h-555v-598h612v-111h-743z" />
    <glyph glyph-name="F" unicode="F" 
d="M115 0v1462h725v-110h-594v-533h555v-110h-555v-709h-131z" />
    <glyph glyph-name="G" unicode="G" horiz-adv-x="1099" 
d="M874 635h-346v110h469v-745h-102v242h-4q-33 -120 -122.5 -193.5t-199.5 -73.5q-467 0 -467 756t467 756q200 0 303.5 -117t116.5 -317h-131q0 139 -75 231t-214 92q-108 0 -180.5 -61.5t-114 -207t-41.5 -376.5t41.5 -376.5t114 -207t180.5 -61.5q149 0 227 131.5
t78 386.5v31z" />
    <glyph glyph-name="H" unicode="H" horiz-adv-x="1062" 
d="M817 0v729h-571v-729h-131v1462h131v-622h571v622h131v-1462h-131z" />
    <glyph glyph-name="I" unicode="I" horiz-adv-x="376" 
d="M123 0v1462h131v-1462h-131z" />
    <glyph glyph-name="J" unicode="J" horiz-adv-x="833" 
d="M39 369v59h131v-35q0 -154 45.5 -230.5t149.5 -76.5q114 0 168.5 64t54.5 231v1081h131v-1095q0 -191 -88 -291.5t-260 -100.5q-163 0 -247.5 93.5t-84.5 300.5z" />
    <glyph glyph-name="K" unicode="K" horiz-adv-x="983" 
d="M115 0v1462h131v-766h4l559 766h139l-446 -610l495 -852h-139l-438 741l-174 -229v-512h-131z" />
    <glyph glyph-name="L" unicode="L" 
d="M115 0v1462h131v-1351h606v-111h-737z" />
    <glyph glyph-name="M" unicode="M" horiz-adv-x="1404" 
d="M127 0v1462h227l353 -1298h4l352 1298h215v-1462h-131v1339h-4l-379 -1339h-123l-379 1339h-4v-1339h-131z" />
    <glyph glyph-name="N" unicode="N" horiz-adv-x="1099" 
d="M115 0v1462h176l559 -1274h4v1274h131v-1462h-176l-559 1274h-4v-1274h-131z" />
    <glyph glyph-name="O" unicode="O" horiz-adv-x="1138" 
d="M102 731q0 756 467 756t467 -756t-467 -756t-467 756zM233 731q0 -231 41.5 -376.5t114 -207t180.5 -61.5t180.5 61.5t114 207t41.5 376.5t-41.5 376.5t-114 207t-180.5 61.5t-180.5 -61.5t-114 -207t-41.5 -376.5z" />
    <glyph glyph-name="P" unicode="P" horiz-adv-x="983" 
d="M246 1352v-607h223q142 0 226.5 72.5t84.5 231.5q0 160 -78 231.5t-233 71.5h-223zM115 0v1462h395q205 0 303 -109.5t98 -303.5q0 -88 -23.5 -160t-73.5 -130.5t-139 -91t-210 -32.5h-219v-635h-131z" />
    <glyph glyph-name="Q" unicode="Q" horiz-adv-x="1138" 
d="M981 -78l-147 144q-107 -91 -265 -91q-467 0 -467 756t467 756t467 -756q0 -404 -133 -588l150 -143zM754 152l-166 159l71 78l158 -153q88 161 88 495q0 231 -41.5 376.5t-114 207t-180.5 61.5t-180.5 -61.5t-114 -207t-41.5 -376.5t41.5 -376.5t114 -207t180.5 -61.5
q111 0 185 66z" />
    <glyph glyph-name="R" unicode="R" horiz-adv-x="1024" 
d="M115 0v1462h436q181 0 280 -97t99 -269q0 -69 -14 -127.5t-44.5 -109.5t-82.5 -86t-123 -48v-4q134 -12 189 -92.5t60 -253.5l5 -160q2 -72 14 -124t47 -91h-154q-35 58 -39 205l-4 123q-3 103 -15 163t-44.5 102.5t-86.5 58.5t-144 16h-248v-668h-131zM246 1352v-574
h225q158 0 243 72t85 215q0 141 -71.5 214t-242.5 73h-239z" />
    <glyph glyph-name="S" unicode="S" horiz-adv-x="983" 
d="M887 1087h-131q0 138 -65.5 213.5t-196.5 75.5q-129 0 -203 -74.5t-74 -187.5q0 -70 24.5 -122t65.5 -84.5t94 -57t112 -43.5t117.5 -39t111.5 -49.5t94 -68.5t65.5 -102t24.5 -145q0 -208 -119 -318t-324 -110q-207 0 -316.5 110.5t-109.5 324.5v43h131v-56
q0 -143 75 -227t216 -84q145 0 230.5 74.5t85.5 222.5q0 69 -24.5 121t-65.5 84t-94 56t-112 42.5t-117.5 39t-111.5 50t-94 70t-65.5 105t-24.5 149.5q0 174 107.5 280.5t295.5 106.5q398 0 398 -400z" />
    <glyph glyph-name="T" unicode="T" horiz-adv-x="909" 
d="M389 0v1352h-377v110h885v-110h-377v-1352h-131z" />
    <glyph glyph-name="U" unicode="U" horiz-adv-x="1024" 
d="M94 410v1052h131v-1050q0 -326 287 -326t287 326v1050h131v-1052q0 -225 -106 -330t-312 -105t-312 105t-106 330z" />
    <glyph glyph-name="V" unicode="V" horiz-adv-x="946" 
d="M391 0l-385 1462h139l326 -1323h4l326 1323h139l-385 -1462h-164z" />
    <glyph glyph-name="W" unicode="W" horiz-adv-x="1478" 
d="M332 0l-309 1462h131l256 -1286h4l250 1286h151l250 -1286h4l256 1286h131l-309 -1462h-164l-242 1286h-4l-241 -1286h-164z" />
    <glyph glyph-name="X" unicode="X" horiz-adv-x="946" 
d="M809 0l-340 629l-340 -629h-131l401 745l-374 717h139l311 -594l316 594h131l-377 -717l403 -745h-139z" />
    <glyph glyph-name="Y" unicode="Y" horiz-adv-x="909" 
d="M389 0v586l-395 876h139l322 -729l321 729h139l-395 -876v-586h-131z" />
    <glyph glyph-name="Z" unicode="Z" horiz-adv-x="946" 
d="M45 0v123l713 1229h-672v110h805v-123l-701 -1228h711v-111h-856z" />
    <glyph glyph-name="bracketleft" unicode="[" horiz-adv-x="493" 
d="M170 -377v1839h324v-102h-201v-1634h201v-103h-324z" />
    <glyph glyph-name="backslash" unicode="\" horiz-adv-x="569" 
d="M-20 1487h110l500 -1512h-111z" />
    <glyph glyph-name="bracketright" unicode="]" horiz-adv-x="493" 
d="M0 -377v103h201v1634h-201v102h324v-1839h-324z" />
    <glyph glyph-name="asciicircum" unicode="^" horiz-adv-x="1228" 
d="M1028 498l-414 805l-413 -805h-111l473 927h103l473 -927h-111z" />
    <glyph glyph-name="underscore" unicode="_" horiz-adv-x="1024" 
d="M0 -256v102h1024v-102h-1024z" />
    <glyph glyph-name="grave" unicode="`" horiz-adv-x="380" 
d="M-20 1511h145l154 -288h-99z" />
    <glyph glyph-name="a" unicode="a" 
d="M219 764h-123q0 170 83.5 259t252.5 89q307 0 307 -289v-643q0 -90 64 -90h35v-90q-34 -12 -58 -12q-80 0 -118.5 28t-38.5 107v37h-5q-63 -185 -280 -185q-139 0 -208 81.5t-69 226.5q0 112 54.5 191t165.5 110l231 65q66 19 85 49t19 123q0 189 -188 189
q-209 0 -209 -246zM616 385v229h-4q-14 -42 -131 -71l-102 -27q-95 -25 -140.5 -78t-45.5 -147q0 -96 46.5 -154.5t125.5 -58.5q114 0 182.5 81.5t68.5 225.5z" />
    <glyph glyph-name="b" unicode="b" horiz-adv-x="909" 
d="M106 0v1462h123v-538h4q21 87 87.5 137.5t166.5 50.5q178 0 263.5 -141.5t85.5 -425.5q0 -286 -85.5 -428t-263.5 -142q-97 0 -169 55.5t-97 149.5h-4v-180h-111zM229 545q0 -117 13 -203t34 -136t53.5 -79.5t64.5 -39t73 -9.5t72.5 9.5t64 39t53.5 79.5t34.5 136
t13.5 203q0 116 -13.5 202t-34.5 135.5t-53.5 79t-64 39t-72.5 9.5t-73 -9.5t-64.5 -39t-53.5 -79t-34 -135.5t-13 -202z" />
    <glyph glyph-name="c" unicode="c" horiz-adv-x="833" 
d="M649 360h123q-14 -176 -105.5 -280.5t-240.5 -104.5q-178 0 -271.5 136t-93.5 434q0 280 96.5 423.5t278.5 143.5q153 0 240 -90t96 -258h-123q-10 127 -62 186.5t-151 59.5q-43 0 -77 -11.5t-66 -42.5t-53 -82t-34 -135t-13 -196q0 -119 13.5 -205.5t34 -135.5t53 -78
t62 -37.5t68.5 -8.5q95 0 152.5 70.5t72.5 211.5z" />
    <glyph glyph-name="d" unicode="d" horiz-adv-x="909" 
d="M692 0v180h-4q-25 -94 -97 -149.5t-169 -55.5q-178 0 -263 142t-85 428q0 284 85 425.5t263 141.5q100 0 166.5 -50.5t87.5 -137.5h4v538h123v-1462h-111zM205 545q0 -117 13.5 -203t34.5 -136t53 -79.5t63.5 -39t72.5 -9.5t73 9.5t64.5 39t53.5 79.5t34 136t13 203
q0 116 -13 202t-34 135.5t-53.5 79t-64.5 39t-73 9.5t-72.5 -9.5t-63.5 -39t-53 -79t-34.5 -135.5t-13.5 -202z" />
    <glyph glyph-name="e" unicode="e" 
d="M666 360h122q-14 -176 -106.5 -280.5t-243.5 -104.5q-178 0 -271 136t-93 434q0 280 96.5 423.5t278.5 143.5q181 0 265.5 -128t84.5 -400v-45h-594v-52q0 -113 18.5 -195t52 -127.5t73 -66t87.5 -20.5q200 0 230 282zM205 641h463q-3 198 -59 283.5t-173 85.5
t-172.5 -85.5t-58.5 -283.5z" />
    <glyph glyph-name="f" unicode="f" horiz-adv-x="493" 
d="M164 0v985h-150v102h150v130q0 50 4.5 85.5t19.5 71t40 57t68.5 35t104.5 13.5q43 0 78 -6v-103q-27 6 -59 6q-70 0 -101.5 -34.5t-31.5 -124.5v-130h192v-102h-192v-985h-123z" />
    <glyph glyph-name="g" unicode="g" horiz-adv-x="909" 
d="M680 920v167h111v-1009q0 -228 -87 -341.5t-270 -113.5q-154 0 -237.5 72.5t-85.5 193.5h122q0 -74 60 -118.5t145 -44.5q112 0 171 76t59 221v172h-4q-28 -96 -96.5 -145.5t-157.5 -49.5q-54 0 -100 14.5t-90.5 52.5t-76 98t-50.5 157t-19 223q0 284 85 425.5t263 141.5
q90 0 157.5 -50.5t96.5 -141.5h4zM205 557q0 -170 28.5 -272.5t77.5 -142.5t125 -40q57 0 98 22.5t72 74t46.5 141t15.5 217.5q0 127 -15.5 216t-46.5 140.5t-72 74t-98 22.5q-76 0 -125 -40t-77.5 -142t-28.5 -271z" />
    <glyph glyph-name="h" unicode="h" horiz-adv-x="909" 
d="M119 0v1462h123v-526h4q23 82 95.5 129t170.5 47q130 0 204.5 -71.5t74.5 -219.5v-821h-123v786q0 224 -187 224q-107 0 -173 -76.5t-66 -202.5v-731h-123z" />
    <glyph glyph-name="i" unicode="i" horiz-adv-x="376" 
d="M127 0v1087h123v-1087h-123zM127 1253v209h123v-209h-123z" />
    <glyph glyph-name="j" unicode="j" horiz-adv-x="376" 
d="M127 -86v1173h123v-1214q0 -131 -64.5 -190.5t-171.5 -59.5q-37 0 -67 6v103q42 -6 47 -6q69 0 101 40t32 148zM127 1253v209h123v-209h-123z" />
    <glyph glyph-name="k" unicode="k" horiz-adv-x="833" 
d="M106 0v1462h123v-915h4l422 540h152l-328 -403l387 -684h-151l-324 573l-162 -192v-381h-123z" />
    <glyph glyph-name="l" unicode="l" horiz-adv-x="376" 
d="M127 0v1462h123v-1462h-123z" />
    <glyph glyph-name="m" unicode="m" horiz-adv-x="1404" 
d="M127 0v1087h111v-151h4q83 176 276 176q96 0 155.5 -52t71.5 -138h5q77 190 276 190q118 0 185 -69.5t67 -211.5v-831h-123v813q0 97 -43.5 147t-126.5 50q-94 0 -157.5 -77.5t-63.5 -201.5v-731h-123v813q0 97 -43.5 147t-126.5 50q-94 0 -157.5 -77.5t-63.5 -201.5
v-731h-123z" />
    <glyph glyph-name="n" unicode="n" horiz-adv-x="909" 
d="M119 0v1087h110v-151h4q44 88 118 132t161 44q130 0 204.5 -71.5t74.5 -219.5v-821h-123v786q0 224 -187 224q-107 0 -173 -76.5t-66 -202.5v-731h-123z" />
    <glyph glyph-name="o" unicode="o" 
d="M61 545q0 280 96.5 423.5t278.5 143.5t278.5 -143.5t96.5 -423.5q0 -282 -96.5 -426t-278.5 -144t-278.5 144t-96.5 426zM193 545q0 -246 65.5 -356.5t177.5 -110.5t178 110.5t66 356.5q0 245 -66 355t-178 110q-53 0 -96 -24.5t-76.5 -77.5t-52 -145t-18.5 -218z" />
    <glyph glyph-name="p" unicode="p" horiz-adv-x="909" 
d="M106 -360v1447h111v-155h4q31 80 100 130t168 50q179 0 263 -141t84 -428q0 -284 -85.5 -426t-263.5 -142q-100 0 -166.5 51t-87.5 138h-4v-524h-123zM705 543q0 115 -13.5 200t-34.5 135.5t-52.5 80.5t-63 40.5t-70.5 10.5q-105 0 -172 -97q-39 -56 -54.5 -141
t-15.5 -229q0 -116 13 -202t34 -135.5t53.5 -79t64.5 -39t73 -9.5t72.5 9.5t64 39t53.5 79t34.5 135.5t13.5 202z" />
    <glyph glyph-name="q" unicode="q" horiz-adv-x="909" 
d="M680 -360v524h-4q-21 -87 -87.5 -138t-166.5 -51q-178 0 -263 142t-85 426q0 287 83.5 428t262.5 141q99 0 168 -50t100 -130h4v155h111v-1447h-123zM205 543q0 -116 13.5 -202t34.5 -135.5t53 -79t63.5 -39t72.5 -9.5t73 9.5t64.5 39t53.5 79t34 135.5t13 202
q0 144 -15.5 229t-54.5 141q-67 97 -172 97q-39 0 -70.5 -10.5t-63 -40.5t-52.5 -80.5t-34 -135.5t-13 -200z" />
    <glyph glyph-name="r" unicode="r" horiz-adv-x="569" 
d="M119 0v1087h123v-169h4q35 91 107 142.5t167 51.5q22 0 43 -6v-123q-30 6 -59 6q-52 0 -98 -19t-83.5 -56t-59 -97.5t-21.5 -136.5v-680h-123z" />
    <glyph glyph-name="s" unicode="s" horiz-adv-x="796" 
d="M463 473l-172 68q-209 80 -209 258q0 159 88.5 236t235.5 77q299 0 299 -303v-31h-123v31q0 201 -179 201q-103 0 -150.5 -49t-47.5 -136q0 -63 30.5 -106t116.5 -76l178 -68q203 -76 203 -276q0 -146 -85.5 -235t-250.5 -89q-171 0 -252.5 78.5t-81.5 259.5v35h123v-29
q0 -241 209 -241q99 0 157 52t58 142q0 74 -33.5 122t-113.5 79z" />
    <glyph glyph-name="t" unicode="t" horiz-adv-x="493" 
d="M164 178v807h-150v102h150v302h123v-302h192v-102h-192v-780q0 -63 27.5 -89t88.5 -26q35 0 76 12v-102q-21 -12 -86 -12q-126 0 -177.5 41.5t-51.5 148.5z" />
    <glyph glyph-name="u" unicode="u" horiz-adv-x="909" 
d="M119 266v821h123v-765q0 -130 45 -187t143 -57q105 0 171.5 76.5t66.5 201.5v731h123v-1087h-111v152h-4q-44 -88 -118 -132.5t-161 -44.5q-130 0 -204 71.5t-74 219.5z" />
    <glyph glyph-name="v" unicode="v" horiz-adv-x="757" 
d="M317 0l-303 1087h131l242 -948h4l221 948h131l-286 -1087h-140z" />
    <glyph glyph-name="w" unicode="w" horiz-adv-x="1212" 
d="M262 0l-242 1087h132l184 -964h4l197 964h151l184 -964h5l184 964h131l-242 -1087h-145l-197 965h-4l-196 -965h-146z" />
    <glyph glyph-name="x" unicode="x" horiz-adv-x="757" 
d="M606 0l-227 467l-227 -467h-140l293 561l-280 526h139l215 -430l215 430h139l-280 -526l292 -561h-139z" />
    <glyph glyph-name="y" unicode="y" horiz-adv-x="757" 
d="M328 -10l-314 1097h131l244 -942h4l219 942h131l-317 -1175q-43 -159 -103.5 -215.5t-185.5 -56.5q-32 0 -82 4v102q54 -4 80 -4q61 0 99 31.5t63 113.5z" />
    <glyph glyph-name="z" unicode="z" horiz-adv-x="720" 
d="M37 0v102l516 883h-490v102h621v-102l-516 -883h516v-102h-647z" />
    <glyph glyph-name="braceleft" unicode="{" horiz-adv-x="493" 
d="M186 858v359q0 117 54 181t166 64h104v-102h-102q-49 0 -74 -31.5t-25 -107.5v-381q1 -141 -33.5 -211t-105.5 -84v-4q71 -14 105.5 -84t33.5 -211v-381q0 -76 25 -107.5t74 -31.5h102v-103h-104q-112 0 -166 64.5t-54 181.5v358q0 105 -11 161t-36 79.5t-71 24.5v102
q46 1 71 24t36 79t11 161z" />
    <glyph glyph-name="bar" unicode="|" horiz-adv-x="454" 
d="M176 -25v1512h103v-1512h-103z" />
    <glyph glyph-name="braceright" unicode="}" horiz-adv-x="493" 
d="M307 227v-358q0 -117 -53.5 -181.5t-165.5 -64.5h-104v103h102q49 0 73.5 31.5t24.5 107.5v381q-1 141 34 211t106 84v4q-71 14 -106 84t-34 211v381q0 76 -24.5 107.5t-73.5 31.5h-102v102h104q112 0 165.5 -64t53.5 -181v-359q0 -105 11.5 -161t36.5 -79t71 -24v-102
q-46 -1 -71 -24.5t-36.5 -79.5t-11.5 -161z" />
    <glyph glyph-name="asciitilde" unicode="~" horiz-adv-x="1228" 
d="M1014 647l73 -74q-47 -65 -81 -100t-77.5 -55.5t-97.5 -20.5q-46 0 -91 14t-117 54q-80 43 -131 57.5t-105 14.5q-61 0 -101.5 -41t-70.5 -107l-74 74q92 176 256 176q78 0 228 -66q103 -45 142.5 -59t66.5 -14q48 0 89.5 35t90.5 112z" />
    <glyph glyph-name="uni00A0" unicode="&#xa0;" horiz-adv-x="491" 
 />
    <glyph glyph-name="exclamdown" unicode="&#xa1;" horiz-adv-x="491" 
d="M176 -352v463l25 618h90l24 -618v-463h-139zM176 901v209h139v-209h-139z" />
    <glyph glyph-name="cent" unicode="&#xa2;" horiz-adv-x="983" 
d="M475 78v932q-47 -6 -82.5 -31t-65.5 -76t-45.5 -141.5t-15.5 -218.5q0 -111 12 -194.5t31 -133t47 -80.5t56 -42.5t63 -14.5zM475 -195v170q-167 9 -253.5 146t-86.5 424q0 266 88 409.5t252 157.5v170h62v-170q144 -9 223 -98t88 -250h-123q-9 117 -54.5 177t-133.5 69
v-932q162 36 188 282h123q-12 -164 -94 -267t-217 -118v-170h-62z" />
    <glyph glyph-name="sterling" unicode="&#xa3;" horiz-adv-x="983" 
d="M909 1032h-123q-15 316 -284 316q-120 0 -197.5 -67t-77.5 -181q0 -101 82 -250l49 -92h310v-90h-275q35 -56 35 -150q0 -218 -240 -407l5 -5q98 50 159 50q13 0 33.5 -5t54.5 -16t52 -16q113 -33 149 -33q101 0 246 102l55 -94q-129 -119 -317 -119q-51 0 -161.5 39
t-162.5 39q-21 0 -43 -4t-39 -8.5t-37 -13.5t-30.5 -14t-27.5 -14t-20 -11l-63 100q119 86 187.5 192.5t68.5 217.5q0 86 -43 170h-201v90h166l-69 133q-54 103 -54 196q0 168 119.5 265.5t294.5 97.5q186 0 292.5 -114.5t106.5 -303.5z" />
    <glyph glyph-name="currency" unicode="&#xa4;" horiz-adv-x="983" 
d="M117 262l-72 76l96 96q-100 124 -100 279q0 156 100 280l-96 97l72 73l96 -96q124 96 279 96q159 0 280 -98l96 98l72 -73l-96 -97q98 -122 98 -280q0 -155 -96 -279l94 -96l-72 -76l-96 100q-124 -100 -280 -100q-158 0 -281 98zM152 713q0 -147 102 -247.5t238 -100.5
q135 0 237 100.5t102 247.5t-102 247.5t-237 100.5q-136 0 -238 -100.5t-102 -247.5z" />
    <glyph glyph-name="yen" unicode="&#xa5;" horiz-adv-x="983" 
d="M426 0v356h-287v90h287v129l-23 50h-264v90h223l-331 710h139l322 -704l321 704h139l-331 -710h223v-90h-264l-23 -50v-129h287v-90h-287v-356h-131z" />
    <glyph glyph-name="brokenbar" unicode="&#xa6;" horiz-adv-x="454" 
d="M176 -25v553h103v-553h-103zM176 934v553h103v-553h-103z" />
    <glyph glyph-name="section" unicode="&#xa7;" horiz-adv-x="985" 
d="M829 1182h-122q0 93 -58 147.5t-153 54.5q-92 0 -150.5 -51t-58.5 -127q0 -54 34.5 -97.5t122.5 -100.5l271 -177q111 -71 154.5 -138.5t43.5 -164.5q0 -90 -54 -166.5t-138 -117.5q56 -45 89.5 -110t33.5 -132q0 -134 -91.5 -221.5t-248.5 -87.5q-160 0 -257 87.5
t-97 223.5v41h122q0 -115 56.5 -182.5t171.5 -67.5q94 0 153.5 53.5t59.5 133.5q0 72 -38 123.5t-132 111.5l-246 158q-123 79 -174 148t-51 167q0 88 62.5 168t148.5 113q-58 41 -92.5 101t-34.5 128q0 132 99 209.5t247 77.5q154 0 240.5 -84t86.5 -221zM653 725l-293 190
q-165 -90 -165 -217q0 -58 42 -109.5t130 -109.5l270 -176q79 37 116.5 93t37.5 139q0 49 -38 99.5t-100 90.5z" />
    <glyph glyph-name="dieresis" unicode="&#xa8;" horiz-adv-x="380" 
d="M-25 1266v209h123v-209h-123zM283 1266v209h123v-209h-123z" />
    <glyph glyph-name="copyright" unicode="&#xa9;" horiz-adv-x="1638" 
d="M1116 575h111q-34 -145 -137.5 -234t-245.5 -89q-136 0 -241 63.5t-160.5 172t-55.5 243.5q0 211 121.5 344t329.5 133q153 0 260.5 -83t128.5 -230h-111q-21 93 -94.5 152t-183.5 59q-162 0 -251 -105t-89 -270q0 -99 40 -184t120.5 -139t185.5 -54q107 0 180 62t92 159
zM63 731q0 154 60 294t161 241t241 161t294 60t294 -60t241 -161t161 -241t60 -294t-60 -294t-161 -241t-241 -161t-294 -60t-294 60t-241 161t-161 241t-60 294zM166 731q0 -133 52 -253.5t139.5 -208t208 -139.5t253.5 -52q177 0 327.5 87.5t238.5 238t88 327.5t-88 327.5
t-238.5 238t-327.5 87.5q-133 0 -253.5 -52t-208 -139.5t-139.5 -208t-52 -253.5z" />
    <glyph glyph-name="ordfeminine" unicode="&#xaa;" horiz-adv-x="567" 
d="M133 1233h-102q0 109 56.5 163t182.5 54q121 0 172.5 -45t51.5 -129v-379q0 -55 41 -55h22v-78q-27 -12 -70 -12q-92 0 -92 82v28h-4q-40 -110 -182 -110q-97 0 -148 54t-51 138q0 153 162 195l152 39q41 11 54 27.5t13 62.5q0 44 -33.5 68t-89.5 24q-68 0 -101.5 -34.5
t-33.5 -92.5zM391 1022v106h-4q-8 -23 -84 -43l-67 -16q-56 -14 -85.5 -43t-29.5 -70q0 -48 30 -81t76 -33q73 0 118.5 48.5t45.5 131.5z" />
    <glyph glyph-name="guillemotleft" unicode="&#xab;" horiz-adv-x="757" 
d="M385 520v123l256 285v-140l-182 -206l182 -207v-139zM117 520v123l256 285v-140l-183 -206l183 -207v-139z" />
    <glyph glyph-name="logicalnot" unicode="&#xac;" horiz-adv-x="1228" 
d="M1030 221v445h-934v102h1037v-547h-103z" />
    <glyph glyph-name="uni00AD" unicode="&#xad;" horiz-adv-x="681" 
d="M119 637h444v-111h-444v111z" />
    <glyph glyph-name="registered" unicode="&#xae;" horiz-adv-x="1638" 
d="M1092 283l-267 399h-188v-399h-102v899h346q293 0 293 -250q0 -111 -63 -172t-163 -78l266 -399h-122zM637 1092v-320h221q213 -4 213 162q0 158 -213 158h-221zM63 731q0 154 60 294t161 241t241 161t294 60t294 -60t241 -161t161 -241t60 -294t-60 -294t-161 -241
t-241 -161t-294 -60t-294 60t-241 161t-161 241t-60 294zM166 731q0 -133 52 -253.5t139.5 -208t208 -139.5t253.5 -52q177 0 327.5 87.5t238.5 238t88 327.5t-88 327.5t-238.5 238t-327.5 87.5q-133 0 -253.5 -52t-208 -139.5t-139.5 -208t-52 -253.5z" />
    <glyph glyph-name="macron" unicode="&#xaf;" horiz-adv-x="380" 
d="M-53 1323v90h487v-90h-487z" />
    <glyph glyph-name="degree" unicode="&#xb0;" horiz-adv-x="819" 
d="M207 1157q0 -85 59 -144t144 -59t143.5 59t58.5 144t-58.5 144t-143.5 59t-144 -59t-59 -144zM117 1157q0 121 85.5 207t207.5 86q121 0 206.5 -85.5t85.5 -207.5t-85.5 -207.5t-206.5 -85.5q-122 0 -207.5 86t-85.5 207z" />
    <glyph glyph-name="plusminus" unicode="&#xb1;" horiz-adv-x="1228" 
d="M563 684v352h103v-352h467v-102h-467v-353h-103v353h-467v102h467zM96 0v102h1037v-102h-1037z" />
    <glyph glyph-name="twosuperior" unicode="&#xb2;" horiz-adv-x="638" 
d="M160 1174h-111q2 133 71 204.5t210 71.5q112 0 184 -59t72 -177q0 -83 -31 -142.5t-119 -125.5l-102 -76q-76 -57 -115.5 -104t-52.5 -102h424v-91h-535q0 108 47.5 184.5t149.5 157.5l100 80q69 54 96 103t27 112q0 74 -43 112t-110 38q-73 0 -115.5 -48t-46.5 -138z
" />
    <glyph glyph-name="threesuperior" unicode="&#xb3;" horiz-adv-x="638" 
d="M244 985v90h37q83 0 130.5 39.5t47.5 102.5q0 62 -39 102.5t-105 40.5q-63 0 -107.5 -41.5t-45.5 -110.5h-111q0 113 66.5 177.5t197.5 64.5q119 0 186.5 -57.5t67.5 -157.5q0 -76 -38.5 -129t-112.5 -70v-4q84 -10 132 -67t48 -140q0 -122 -72 -194t-211 -72
q-129 0 -199.5 63.5t-74.5 186.5h111q2 -62 46 -111t117 -49q68 0 120 45.5t52 128.5q0 75 -51 118.5t-137 43.5h-55z" />
    <glyph glyph-name="acute" unicode="&#xb4;" horiz-adv-x="380" 
d="M256 1511h145l-200 -288h-99z" />
    <glyph glyph-name="mu" unicode="&#xb5;" horiz-adv-x="909" 
d="M119 -360v1447h123v-765q0 -130 45 -187t143 -57q105 0 171.5 76.5t66.5 201.5v731h123v-1087h-111v152h-4q-44 -88 -118 -132.5t-161 -44.5q-118 0 -151 50h-4v-385h-123z" />
    <glyph glyph-name="paragraph" unicode="&#xb6;" horiz-adv-x="985" 
d="M397 -283v967q-137 0 -236.5 109.5t-99.5 263.5q0 193 106.5 299t281.5 106h372v-1745h-102v1655h-219v-1655h-103z" />
    <glyph glyph-name="periodcentered" unicode="&#xb7;" horiz-adv-x="491" 
d="M133 672q0 46 33.5 79t79.5 33t79 -33t33 -79t-33 -79.5t-79 -33.5t-79.5 33.5t-33.5 79.5z" />
    <glyph glyph-name="cedilla" unicode="&#xb8;" horiz-adv-x="380" 
d="M184 0h76l-88 -115l4 -2q25 11 70 11q66 0 111.5 -40.5t45.5 -97.5q0 -80 -68.5 -127t-148.5 -47q-45 0 -97 12.5t-85 28.5l25 64q64 -31 123 -31q70 0 105.5 25.5t35.5 64.5q0 36 -32 55t-77 19q-56 0 -90 -21l-26 35z" />
    <glyph glyph-name="onesuperior" unicode="&#xb9;" horiz-adv-x="638" 
d="M295 573v656h-221v74q229 3 239 147h93v-877h-111z" />
    <glyph glyph-name="ordmasculine" unicode="&#xba;" horiz-adv-x="567" 
d="M18 1102q0 348 265 348q135 0 200.5 -86.5t65.5 -261.5q0 -177 -65.5 -263.5t-200.5 -86.5q-265 0 -265 350zM129 1102q0 -133 43 -196.5t111 -63.5q70 0 112.5 63.5t42.5 196.5q0 132 -42.5 195t-112.5 63q-68 0 -111 -63t-43 -195z" />
    <glyph glyph-name="guillemotright" unicode="&#xbb;" horiz-adv-x="757" 
d="M117 236v139l182 207l-182 206v140l256 -285v-123zM385 236v139l182 207l-182 206v140l256 -285v-123z" />
    <glyph glyph-name="onequarter" unicode="&#xbc;" horiz-adv-x="1476" 
d="M1161 0v225h-381v74l361 578h123v-578h110v-74h-110v-225h-103zM870 299h291v438h-4zM184 -61l924 1548h102l-923 -1548h-103zM295 573v656h-221v74q229 3 239 147h93v-877h-111z" />
    <glyph glyph-name="onehalf" unicode="&#xbd;" horiz-adv-x="1476" 
d="M123 -61l924 1548h102l-924 -1548h-102zM295 573v656h-221v74q229 3 239 147h93v-877h-111zM915 600h-110q2 133 70.5 205t209.5 72q112 0 184 -59t72 -177q0 -83 -30.5 -142.5t-118.5 -125.5l-102 -76q-76 -56 -115.5 -104t-52.5 -103h424v-90h-535q0 108 47.5 184.5
t149.5 157.5l100 80q69 54 96 103t27 112q0 74 -43 111.5t-111 37.5q-73 0 -115.5 -48t-46.5 -138z" />
    <glyph glyph-name="threequarters" unicode="&#xbe;" horiz-adv-x="1476" 
d="M1161 0v225h-381v74l361 578h123v-578h110v-74h-110v-225h-103zM870 299h291v438h-4zM246 -61l923 1548h103l-924 -1548h-102zM244 985v90h37q83 0 130.5 39.5t47.5 102.5q0 62 -39 102.5t-105 40.5q-63 0 -107.5 -41.5t-45.5 -110.5h-111q0 113 66.5 177.5t197.5 64.5
q119 0 186.5 -57.5t67.5 -157.5q0 -76 -38.5 -129t-112.5 -70v-4q84 -10 132 -67t48 -140q0 -122 -72 -194t-211 -72q-129 0 -199.5 63.5t-74.5 186.5h111q2 -62 46 -111t117 -49q68 0 120 45.5t52 128.5q0 75 -51 118.5t-137 43.5h-55z" />
    <glyph glyph-name="questiondown" unicode="&#xbf;" 
d="M406 731h122v-72q0 -112 -27.5 -177t-107.5 -150l-86 -92q-106 -114 -106 -260q0 -110 63 -182t166 -72q130 0 196 88.5t66 255.5h131q-1 -130 -41.5 -229t-128.5 -158.5t-215 -59.5q-169 0 -268.5 99t-99.5 260q0 87 29 164t104 157l88 94q64 67 89.5 127.5t25.5 149.5
v57zM397 901v209h140v-209h-140z" />
    <glyph glyph-name="Agrave" unicode="&#xc0;" horiz-adv-x="1024" 
d="M285 537h454l-225 823h-4zM-2 0l432 1462h164l432 -1462h-139l-119 426h-512l-119 -426h-139zM301 1821h145l154 -289h-98z" />
    <glyph glyph-name="Aacute" unicode="&#xc1;" horiz-adv-x="1024" 
d="M285 537h454l-225 823h-4zM-2 0l432 1462h164l432 -1462h-139l-119 426h-512l-119 -426h-139zM578 1821h145l-201 -289h-98z" />
    <glyph glyph-name="Acircumflex" unicode="&#xc2;" horiz-adv-x="1024" 
d="M285 537h454l-225 823h-4zM-2 0l432 1462h164l432 -1462h-139l-119 426h-512l-119 -426h-139zM377 1532h-123l197 289h122l197 -289h-123l-135 205z" />
    <glyph glyph-name="Atilde" unicode="&#xc3;" horiz-adv-x="1024" 
d="M285 537h454l-225 823h-4zM-2 0l432 1462h164l432 -1462h-139l-119 426h-512l-119 -426h-139zM696 1780h90q-2 -71 -45.5 -136t-111.5 -65q-47 0 -101 31l-77 43q-32 16 -50 16q-27 0 -46.5 -29.5t-26.5 -68.5h-90q3 71 48 136t107 65q34 0 56.5 -7.5t60.5 -29.5l53 -31
q38 -23 62 -23q31 0 52 34.5t19 64.5z" />
    <glyph glyph-name="Adieresis" unicode="&#xc4;" horiz-adv-x="1024" 
d="M285 537h454l-225 823h-4zM-2 0l432 1462h164l432 -1462h-139l-119 426h-512l-119 -426h-139zM297 1575v209h123v-209h-123zM604 1575v209h123v-209h-123z" />
    <glyph glyph-name="Aring" unicode="&#xc5;" horiz-adv-x="1024" 
d="M285 537h454l-225 823h-4zM-2 0l432 1462h164l432 -1462h-139l-119 426h-512l-119 -426h-139zM317 1704q0 79 57.5 136.5t137.5 57.5t137.5 -57.5t57.5 -136.5q0 -80 -57.5 -137.5t-137.5 -57.5t-137.5 57.5t-57.5 137.5zM391 1704q0 -51 35 -86t86 -35t86 35t35 86
t-35 86t-86 35t-86 -35t-35 -86z" />
    <glyph glyph-name="AE" unicode="&#xc6;" horiz-adv-x="1441" 
d="M680 0v426h-391l-166 -426h-139l594 1462h808v-110h-575v-533h537v-110h-537v-598h594v-111h-725zM330 537h350v815h-21z" />
    <glyph glyph-name="Ccedilla" unicode="&#xc7;" horiz-adv-x="1062" 
d="M446 -166l101 141q-445 22 -445 756q0 756 467 756q108 0 190.5 -36.5t131.5 -99.5t73.5 -142.5t24.5 -172.5h-131q0 153 -75.5 246.5t-213.5 93.5q-108 0 -180.5 -61.5t-114 -207t-41.5 -376.5t41.5 -376.5t114 -207t180.5 -61.5q136 0 214 109t89 301h132
q-12 -232 -110.5 -365.5t-270.5 -150.5l-72 -95l4 -2q25 11 70 11q66 0 111.5 -40.5t45.5 -97.5q0 -80 -68.5 -127t-148.5 -47q-45 0 -97 12.5t-85 28.5l25 64q64 -31 122 -31q70 0 106 25.5t36 64.5q0 36 -32 55t-77 19q-55 0 -90 -21z" />
    <glyph glyph-name="Egrave" unicode="&#xc8;" horiz-adv-x="909" 
d="M115 0v1462h725v-110h-594v-533h555v-110h-555v-598h612v-111h-743zM281 1821h145l154 -289h-99z" />
    <glyph glyph-name="Eacute" unicode="&#xc9;" horiz-adv-x="909" 
d="M115 0v1462h725v-110h-594v-533h555v-110h-555v-598h612v-111h-743zM557 1821h145l-200 -289h-99z" />
    <glyph glyph-name="Ecircumflex" unicode="&#xca;" horiz-adv-x="909" 
d="M115 0v1462h725v-110h-594v-533h555v-110h-555v-598h612v-111h-743zM356 1532h-123l197 289h123l197 -289h-123l-135 205z" />
    <glyph glyph-name="Edieresis" unicode="&#xcb;" horiz-adv-x="909" 
d="M115 0v1462h725v-110h-594v-533h555v-110h-555v-598h612v-111h-743zM276 1575v209h123v-209h-123zM584 1575v209h123v-209h-123z" />
    <glyph glyph-name="Igrave" unicode="&#xcc;" horiz-adv-x="376" 
d="M123 0v1462h131v-1462h-131zM-23 1821h146l153 -289h-98z" />
    <glyph glyph-name="Iacute" unicode="&#xcd;" horiz-adv-x="376" 
d="M123 0v1462h131v-1462h-131zM254 1821h145l-200 -289h-99z" />
    <glyph glyph-name="Icircumflex" unicode="&#xce;" horiz-adv-x="376" 
d="M123 0v1462h131v-1462h-131zM53 1532h-123l197 289h123l196 -289h-122l-136 205z" />
    <glyph glyph-name="Idieresis" unicode="&#xcf;" horiz-adv-x="376" 
d="M123 0v1462h131v-1462h-131zM-27 1575v209h123v-209h-123zM281 1575v209h122v-209h-122z" />
    <glyph glyph-name="Eth" unicode="&#xd0;" horiz-adv-x="1099" 
d="M115 0v709h-115v110h115v643h352q106 0 187 -20.5t139.5 -63.5t98 -102t62.5 -144t33 -181t10 -220t-10 -220t-33 -181t-62.5 -144t-98 -102t-139.5 -63.5t-187 -20.5h-352zM246 819h327v-110h-327v-598h213q148 0 234.5 55.5t129.5 190.5t43 372q0 239 -43 375
t-129.5 192t-234.5 56h-213v-533z" />
    <glyph glyph-name="Ntilde" unicode="&#xd1;" horiz-adv-x="1099" 
d="M115 0v1462h176l559 -1274h4v1274h131v-1462h-176l-559 1274h-4v-1274h-131zM735 1780h90q-2 -71 -45.5 -136t-111.5 -65q-47 0 -101 31l-78 43q-32 16 -49 16q-27 0 -46.5 -29.5t-26.5 -68.5h-91q3 71 48.5 136t107.5 65q34 0 56.5 -7.5t60.5 -29.5l53 -31
q38 -23 62 -23q31 0 52 34.5t19 64.5z" />
    <glyph glyph-name="Ograve" unicode="&#xd2;" horiz-adv-x="1138" 
d="M102 731q0 756 467 756t467 -756t-467 -756t-467 756zM233 731q0 -231 41.5 -376.5t114 -207t180.5 -61.5t180.5 61.5t114 207t41.5 376.5t-41.5 376.5t-114 207t-180.5 61.5t-180.5 -61.5t-114 -207t-41.5 -376.5zM358 1821h146l153 -289h-98z" />
    <glyph glyph-name="Oacute" unicode="&#xd3;" horiz-adv-x="1138" 
d="M102 731q0 756 467 756t467 -756t-467 -756t-467 756zM233 731q0 -231 41.5 -376.5t114 -207t180.5 -61.5t180.5 61.5t114 207t41.5 376.5t-41.5 376.5t-114 207t-180.5 61.5t-180.5 -61.5t-114 -207t-41.5 -376.5zM635 1821h145l-200 -289h-99z" />
    <glyph glyph-name="Ocircumflex" unicode="&#xd4;" horiz-adv-x="1138" 
d="M102 731q0 756 467 756t467 -756t-467 -756t-467 756zM233 731q0 -231 41.5 -376.5t114 -207t180.5 -61.5t180.5 61.5t114 207t41.5 376.5t-41.5 376.5t-114 207t-180.5 61.5t-180.5 -61.5t-114 -207t-41.5 -376.5zM434 1532h-123l197 289h123l196 -289h-122l-136 205z
" />
    <glyph glyph-name="Otilde" unicode="&#xd5;" horiz-adv-x="1138" 
d="M102 731q0 756 467 756t467 -756t-467 -756t-467 756zM233 731q0 -231 41.5 -376.5t114 -207t180.5 -61.5t180.5 61.5t114 207t41.5 376.5t-41.5 376.5t-114 207t-180.5 61.5t-180.5 -61.5t-114 -207t-41.5 -376.5zM754 1780h90q-2 -71 -46 -136t-112 -65q-46 0 -100 31
l-78 43q-32 16 -49 16q-27 0 -47 -29.5t-27 -68.5h-90q3 71 48.5 136t107.5 65q33 0 55.5 -7.5t60.5 -29.5l54 -31q38 -23 61 -23q31 0 52.5 34.5t19.5 64.5z" />
    <glyph glyph-name="Odieresis" unicode="&#xd6;" horiz-adv-x="1138" 
d="M102 731q0 756 467 756t467 -756t-467 -756t-467 756zM233 731q0 -231 41.5 -376.5t114 -207t180.5 -61.5t180.5 61.5t114 207t41.5 376.5t-41.5 376.5t-114 207t-180.5 61.5t-180.5 -61.5t-114 -207t-41.5 -376.5zM354 1575v209h123v-209h-123zM662 1575v209h122v-209
h-122z" />
    <glyph glyph-name="multiply" unicode="&#xd7;" horiz-adv-x="1228" 
d="M1004 57l-390 389l-389 -389l-73 72l391 389l-391 391l73 72l389 -389l390 389l73 -72l-391 -391l391 -389z" />
    <glyph glyph-name="Oslash" unicode="&#xd8;" horiz-adv-x="1138" 
d="M317 244l449 1054q-75 78 -197 78q-108 0 -180.5 -61.5t-114 -207t-41.5 -376.5q0 -331 84 -487zM821 1219l-446 -1055q72 -78 194 -78q108 0 180.5 61.5t114 207t41.5 376.5q0 330 -84 488zM272 -86l-75 33l67 159q-162 179 -162 625q0 756 467 756q144 0 242 -70
l55 131l76 -28l-68 -162q162 -182 162 -627q0 -756 -467 -756q-140 0 -241 70z" />
    <glyph glyph-name="Ugrave" unicode="&#xd9;" horiz-adv-x="1024" 
d="M94 410v1052h131v-1050q0 -326 287 -326t287 326v1050h131v-1052q0 -225 -106 -330t-312 -105t-312 105t-106 330zM301 1821h145l154 -289h-98z" />
    <glyph glyph-name="Uacute" unicode="&#xda;" horiz-adv-x="1024" 
d="M94 410v1052h131v-1050q0 -326 287 -326t287 326v1050h131v-1052q0 -225 -106 -330t-312 -105t-312 105t-106 330zM578 1821h145l-201 -289h-98z" />
    <glyph glyph-name="Ucircumflex" unicode="&#xdb;" horiz-adv-x="1024" 
d="M94 410v1052h131v-1050q0 -326 287 -326t287 326v1050h131v-1052q0 -225 -106 -330t-312 -105t-312 105t-106 330zM377 1532h-123l197 289h122l197 -289h-123l-135 205z" />
    <glyph glyph-name="Udieresis" unicode="&#xdc;" horiz-adv-x="1024" 
d="M94 410v1052h131v-1050q0 -326 287 -326t287 326v1050h131v-1052q0 -225 -106 -330t-312 -105t-312 105t-106 330zM297 1575v209h123v-209h-123zM604 1575v209h123v-209h-123z" />
    <glyph glyph-name="Yacute" unicode="&#xdd;" horiz-adv-x="909" 
d="M389 0v586l-395 876h139l322 -729l321 729h139l-395 -876v-586h-131zM520 1821h146l-201 -289h-98z" />
    <glyph glyph-name="Thorn" unicode="&#xde;" horiz-adv-x="983" 
d="M246 1065v-606h223q142 0 226.5 72t84.5 231t-84.5 231t-226.5 72h-223zM115 0v1462h131v-286h274q197 0 294 -111.5t97 -302.5q0 -88 -23.5 -160t-73.5 -130.5t-139 -91t-210 -32.5h-219v-348h-131z" />
    <glyph glyph-name="germandbls" unicode="&#xdf;" horiz-adv-x="909" 
d="M106 0v1104q0 183 90.5 279t252.5 96q155 0 242 -89t87 -249q0 -105 -51.5 -189.5t-161.5 -107.5v-4q68 -8 120 -37.5t82 -70t49 -93t25.5 -99.5t6.5 -98q0 -213 -105 -333.5t-288 -120.5q-54 0 -84 12v102q24 -12 67 -12q123 0 201 91t78 270q0 327 -291 327h-45v103h35
q108 0 169.5 64.5t61.5 189.5q0 108 -52.5 174.5t-152.5 66.5q-213 0 -213 -284v-1092h-123z" />
    <glyph glyph-name="agrave" unicode="&#xe0;" 
d="M219 764h-123q0 170 83.5 259t252.5 89q307 0 307 -289v-643q0 -90 64 -90h35v-90q-34 -12 -58 -12q-80 0 -118.5 28t-38.5 107v37h-5q-63 -185 -280 -185q-139 0 -208 81.5t-69 226.5q0 112 54.5 191t165.5 110l231 65q66 19 85 49t19 123q0 189 -188 189
q-209 0 -209 -246zM616 385v229h-4q-14 -42 -131 -71l-102 -27q-95 -25 -140.5 -78t-45.5 -147q0 -96 46.5 -154.5t125.5 -58.5q114 0 182.5 81.5t68.5 225.5zM225 1511h146l153 -288h-98z" />
    <glyph glyph-name="aacute" unicode="&#xe1;" 
d="M219 764h-123q0 170 83.5 259t252.5 89q307 0 307 -289v-643q0 -90 64 -90h35v-90q-34 -12 -58 -12q-80 0 -118.5 28t-38.5 107v37h-5q-63 -185 -280 -185q-139 0 -208 81.5t-69 226.5q0 112 54.5 191t165.5 110l231 65q66 19 85 49t19 123q0 189 -188 189
q-209 0 -209 -246zM616 385v229h-4q-14 -42 -131 -71l-102 -27q-95 -25 -140.5 -78t-45.5 -147q0 -96 46.5 -154.5t125.5 -58.5q114 0 182.5 81.5t68.5 225.5zM502 1511h145l-201 -288h-98z" />
    <glyph glyph-name="acircumflex" unicode="&#xe2;" 
d="M219 764h-123q0 170 83.5 259t252.5 89q307 0 307 -289v-643q0 -90 64 -90h35v-90q-34 -12 -58 -12q-80 0 -118.5 28t-38.5 107v37h-5q-63 -185 -280 -185q-139 0 -208 81.5t-69 226.5q0 112 54.5 191t165.5 110l231 65q66 19 85 49t19 123q0 189 -188 189
q-209 0 -209 -246zM616 385v229h-4q-14 -42 -131 -71l-102 -27q-95 -25 -140.5 -78t-45.5 -147q0 -96 46.5 -154.5t125.5 -58.5q114 0 182.5 81.5t68.5 225.5zM301 1223h-123l197 288h123l196 -288h-123l-135 204z" />
    <glyph glyph-name="atilde" unicode="&#xe3;" 
d="M219 764h-123q0 170 83.5 259t252.5 89q307 0 307 -289v-643q0 -90 64 -90h35v-90q-34 -12 -58 -12q-80 0 -118.5 28t-38.5 107v37h-5q-63 -185 -280 -185q-139 0 -208 81.5t-69 226.5q0 112 54.5 191t165.5 110l231 65q66 19 85 49t19 123q0 189 -188 189
q-209 0 -209 -246zM616 385v229h-4q-14 -42 -131 -71l-102 -27q-95 -25 -140.5 -78t-45.5 -147q0 -96 46.5 -154.5t125.5 -58.5q114 0 182.5 81.5t68.5 225.5zM621 1470h90q-2 -71 -46 -135.5t-112 -64.5q-47 0 -100 30l-78 43q-34 17 -49 17q-27 0 -47 -29.5t-27 -68.5h-90
q3 71 48 135.5t107 64.5q34 0 56.5 -7.5t60.5 -29.5l53 -30q38 -23 62 -23q31 0 52.5 34t19.5 64z" />
    <glyph glyph-name="adieresis" unicode="&#xe4;" 
d="M219 764h-123q0 170 83.5 259t252.5 89q307 0 307 -289v-643q0 -90 64 -90h35v-90q-34 -12 -58 -12q-80 0 -118.5 28t-38.5 107v37h-5q-63 -185 -280 -185q-139 0 -208 81.5t-69 226.5q0 112 54.5 191t165.5 110l231 65q66 19 85 49t19 123q0 189 -188 189
q-209 0 -209 -246zM616 385v229h-4q-14 -42 -131 -71l-102 -27q-95 -25 -140.5 -78t-45.5 -147q0 -96 46.5 -154.5t125.5 -58.5q114 0 182.5 81.5t68.5 225.5zM221 1266v209h123v-209h-123zM528 1266v209h123v-209h-123z" />
    <glyph glyph-name="aring" unicode="&#xe5;" 
d="M219 764h-123q0 170 83.5 259t252.5 89q307 0 307 -289v-643q0 -90 64 -90h35v-90q-34 -12 -58 -12q-80 0 -118.5 28t-38.5 107v37h-5q-63 -185 -280 -185q-139 0 -208 81.5t-69 226.5q0 112 54.5 191t165.5 110l231 65q66 19 85 49t19 123q0 189 -188 189
q-209 0 -209 -246zM616 385v229h-4q-14 -42 -131 -71l-102 -27q-95 -25 -140.5 -78t-45.5 -147q0 -96 46.5 -154.5t125.5 -58.5q114 0 182.5 81.5t68.5 225.5zM242 1395q0 79 57 136.5t137 57.5t137.5 -57.5t57.5 -136.5t-57.5 -137t-137.5 -58q-79 0 -136.5 57.5
t-57.5 137.5zM315 1395q0 -51 35 -86t86 -35t86 35t35 86t-35 86t-86 35t-86 -35t-35 -86z" />
    <glyph glyph-name="ae" unicode="&#xe6;" horiz-adv-x="1327" 
d="M219 764h-123q0 169 81 258.5t241 89.5q99 0 168 -44t90 -132h4q27 84 97.5 130t156.5 46q179 0 255.5 -137.5t76.5 -435.5h-561v-60q0 -199 58.5 -300t154.5 -101q90 0 152 80t63 202h122q-10 -184 -98 -284.5t-235 -100.5q-104 0 -176 60.5t-105 165.5h-4
q-62 -226 -299 -226q-139 0 -208 81.5t-69 226.5q0 136 61 204t208 107l147 39q61 18 83 49t22 111q0 117 -39 167t-129 50q-97 0 -146 -63t-49 -183zM485 541l-127 -35q-92 -26 -128.5 -75.5t-36.5 -139.5q0 -96 46.5 -154.5t125.5 -58.5q38 0 74.5 16t69.5 47.5t53 87.5
t20 129v228h-4q-18 -27 -93 -45zM705 641h430q-3 369 -215 369q-210 0 -215 -369z" />
    <glyph glyph-name="ccedilla" unicode="&#xe7;" horiz-adv-x="833" 
d="M313 -166l101 141q-172 5 -262.5 141.5t-90.5 428.5q0 280 96.5 423.5t278.5 143.5q153 0 240 -90t96 -258h-123q-10 127 -62 186.5t-151 59.5q-43 0 -77 -11.5t-66 -42.5t-53 -82t-34 -135t-13 -196q0 -119 13.5 -205.5t34 -135.5t53 -78t62 -37.5t68.5 -8.5
q95 0 152.5 70.5t72.5 211.5h123q-12 -155 -85.5 -256t-194.5 -124l-74 -95l4 -2q25 11 70 11q66 0 111.5 -40.5t45.5 -97.5q0 -80 -68.5 -127t-148.5 -47q-45 0 -97 12.5t-85 28.5l24 64q64 -31 123 -31q70 0 106 25.5t36 64.5q0 36 -32 55t-77 19q-56 0 -90 -21z" />
    <glyph glyph-name="egrave" unicode="&#xe8;" 
d="M666 360h122q-14 -176 -106.5 -280.5t-243.5 -104.5q-178 0 -271 136t-93 434q0 280 96.5 423.5t278.5 143.5q181 0 265.5 -128t84.5 -400v-45h-594v-52q0 -113 18.5 -195t52 -127.5t73 -66t87.5 -20.5q200 0 230 282zM205 641h463q-3 198 -59 283.5t-173 85.5
t-172.5 -85.5t-58.5 -283.5zM236 1511h145l154 -288h-99z" />
    <glyph glyph-name="eacute" unicode="&#xe9;" 
d="M666 360h122q-14 -176 -106.5 -280.5t-243.5 -104.5q-178 0 -271 136t-93 434q0 280 96.5 423.5t278.5 143.5q181 0 265.5 -128t84.5 -400v-45h-594v-52q0 -113 18.5 -195t52 -127.5t73 -66t87.5 -20.5q200 0 230 282zM205 641h463q-3 198 -59 283.5t-173 85.5
t-172.5 -85.5t-58.5 -283.5zM512 1511h145l-200 -288h-99z" />
    <glyph glyph-name="ecircumflex" unicode="&#xea;" 
d="M666 360h122q-14 -176 -106.5 -280.5t-243.5 -104.5q-178 0 -271 136t-93 434q0 280 96.5 423.5t278.5 143.5q181 0 265.5 -128t84.5 -400v-45h-594v-52q0 -113 18.5 -195t52 -127.5t73 -66t87.5 -20.5q200 0 230 282zM205 641h463q-3 198 -59 283.5t-173 85.5
t-172.5 -85.5t-58.5 -283.5zM311 1223h-123l197 288h123l197 -288h-123l-136 204z" />
    <glyph glyph-name="edieresis" unicode="&#xeb;" 
d="M666 360h122q-14 -176 -106.5 -280.5t-243.5 -104.5q-178 0 -271 136t-93 434q0 280 96.5 423.5t278.5 143.5q181 0 265.5 -128t84.5 -400v-45h-594v-52q0 -113 18.5 -195t52 -127.5t73 -66t87.5 -20.5q200 0 230 282zM205 641h463q-3 198 -59 283.5t-173 85.5
t-172.5 -85.5t-58.5 -283.5zM231 1266v209h123v-209h-123zM539 1266v209h123v-209h-123z" />
    <glyph glyph-name="igrave" unicode="&#xec;" horiz-adv-x="376" 
d="M127 0v1087h123v-1087h-123zM-23 1511h146l153 -288h-98z" />
    <glyph glyph-name="iacute" unicode="&#xed;" horiz-adv-x="376" 
d="M127 0v1087h123v-1087h-123zM254 1511h145l-200 -288h-99z" />
    <glyph glyph-name="icircumflex" unicode="&#xee;" horiz-adv-x="376" 
d="M127 0v1087h123v-1087h-123zM53 1223h-123l197 288h123l196 -288h-122l-136 204z" />
    <glyph glyph-name="idieresis" unicode="&#xef;" horiz-adv-x="376" 
d="M127 0v1087h123v-1087h-123zM-27 1266v209h123v-209h-123zM281 1266v209h122v-209h-122z" />
    <glyph glyph-name="eth" unicode="&#xf0;" 
d="M193 532q0 -122 18.5 -212t52 -141.5t76.5 -76t96 -24.5t96 24.5t77 76t52.5 141.5t18.5 212q0 237 -66.5 345t-177.5 108t-177 -108t-66 -345zM242 1225l-78 65l151 90q-56 61 -149 140l96 65q96 -82 156 -147l147 86l74 -62l-154 -92q155 -169 240.5 -366.5
t85.5 -458.5q0 -282 -96.5 -426t-278.5 -144q-181 0 -278 142t-97 415q0 267 96.5 411t256.5 144q124 0 200 -108l4 4q-110 186 -235 326z" />
    <glyph glyph-name="ntilde" unicode="&#xf1;" horiz-adv-x="909" 
d="M119 0v1087h110v-151h4q44 88 118 132t161 44q130 0 204.5 -71.5t74.5 -219.5v-821h-123v786q0 224 -187 224q-107 0 -173 -76.5t-66 -202.5v-731h-123zM639 1470h90q-2 -71 -46 -135.5t-112 -64.5q-47 0 -100 30l-78 43q-34 17 -49 17q-27 0 -47 -29.5t-27 -68.5h-90
q3 71 48.5 135.5t107.5 64.5q34 0 56.5 -7.5t60.5 -29.5l53 -30q38 -23 61 -23q31 0 52.5 34t19.5 64z" />
    <glyph glyph-name="ograve" unicode="&#xf2;" 
d="M61 545q0 280 96.5 423.5t278.5 143.5t278.5 -143.5t96.5 -423.5q0 -282 -96.5 -426t-278.5 -144t-278.5 144t-96.5 426zM193 545q0 -246 65.5 -356.5t177.5 -110.5t178 110.5t66 356.5q0 245 -66 355t-178 110q-53 0 -96 -24.5t-76.5 -77.5t-52 -145t-18.5 -218z
M225 1511h146l153 -288h-98z" />
    <glyph glyph-name="oacute" unicode="&#xf3;" 
d="M61 545q0 280 96.5 423.5t278.5 143.5t278.5 -143.5t96.5 -423.5q0 -282 -96.5 -426t-278.5 -144t-278.5 144t-96.5 426zM193 545q0 -246 65.5 -356.5t177.5 -110.5t178 110.5t66 356.5q0 245 -66 355t-178 110q-53 0 -96 -24.5t-76.5 -77.5t-52 -145t-18.5 -218z
M502 1511h145l-201 -288h-98z" />
    <glyph glyph-name="ocircumflex" unicode="&#xf4;" 
d="M61 545q0 280 96.5 423.5t278.5 143.5t278.5 -143.5t96.5 -423.5q0 -282 -96.5 -426t-278.5 -144t-278.5 144t-96.5 426zM193 545q0 -246 65.5 -356.5t177.5 -110.5t178 110.5t66 356.5q0 245 -66 355t-178 110q-53 0 -96 -24.5t-76.5 -77.5t-52 -145t-18.5 -218z
M301 1223h-123l197 288h123l196 -288h-123l-135 204z" />
    <glyph glyph-name="otilde" unicode="&#xf5;" 
d="M61 545q0 280 96.5 423.5t278.5 143.5t278.5 -143.5t96.5 -423.5q0 -282 -96.5 -426t-278.5 -144t-278.5 144t-96.5 426zM193 545q0 -246 65.5 -356.5t177.5 -110.5t178 110.5t66 356.5q0 245 -66 355t-178 110q-53 0 -96 -24.5t-76.5 -77.5t-52 -145t-18.5 -218z
M621 1470h90q-2 -71 -46 -135.5t-112 -64.5q-47 0 -100 30l-78 43q-34 17 -49 17q-27 0 -47 -29.5t-27 -68.5h-90q3 71 48 135.5t107 64.5q34 0 56.5 -7.5t60.5 -29.5l53 -30q38 -23 62 -23q31 0 52.5 34t19.5 64z" />
    <glyph glyph-name="odieresis" unicode="&#xf6;" 
d="M61 545q0 280 96.5 423.5t278.5 143.5t278.5 -143.5t96.5 -423.5q0 -282 -96.5 -426t-278.5 -144t-278.5 144t-96.5 426zM193 545q0 -246 65.5 -356.5t177.5 -110.5t178 110.5t66 356.5q0 245 -66 355t-178 110q-53 0 -96 -24.5t-76.5 -77.5t-52 -145t-18.5 -218z
M221 1266v209h123v-209h-123zM528 1266v209h123v-209h-123z" />
    <glyph glyph-name="divide" unicode="&#xf7;" horiz-adv-x="1228" 
d="M96 467v102h1037v-102h-1037zM502 940q0 46 33 79.5t79 33.5t79.5 -33.5t33.5 -79.5t-33.5 -79.5t-79.5 -33.5t-79 33.5t-33 79.5zM502 96q0 46 33 79.5t79 33.5t79.5 -33.5t33.5 -79.5t-33.5 -79t-79.5 -33t-79 33t-33 79z" />
    <glyph glyph-name="oslash" unicode="&#xf8;" 
d="M250 207l315 754q-52 49 -129 49q-53 0 -96 -24.5t-76.5 -77.5t-52 -145t-18.5 -218q0 -224 57 -338zM623 881l-316 -752q51 -51 129 -51q112 0 178 110.5t66 356.5q0 225 -57 336zM205 -113l-76 31l66 156q-134 140 -134 471q0 280 96.5 423.5t278.5 143.5
q103 0 174 -45l56 133l77 -33l-65 -153q133 -139 133 -469q0 -282 -96.5 -426t-278.5 -144q-103 0 -174 48z" />
    <glyph glyph-name="ugrave" unicode="&#xf9;" horiz-adv-x="909" 
d="M119 266v821h123v-765q0 -130 45 -187t143 -57q105 0 171.5 76.5t66.5 201.5v731h123v-1087h-111v152h-4q-44 -88 -118 -132.5t-161 -44.5q-130 0 -204 71.5t-74 219.5zM244 1511h145l154 -288h-99z" />
    <glyph glyph-name="uacute" unicode="&#xfa;" horiz-adv-x="909" 
d="M119 266v821h123v-765q0 -130 45 -187t143 -57q105 0 171.5 76.5t66.5 201.5v731h123v-1087h-111v152h-4q-44 -88 -118 -132.5t-161 -44.5q-130 0 -204 71.5t-74 219.5zM520 1511h146l-201 -288h-98z" />
    <glyph glyph-name="ucircumflex" unicode="&#xfb;" horiz-adv-x="909" 
d="M119 266v821h123v-765q0 -130 45 -187t143 -57q105 0 171.5 76.5t66.5 201.5v731h123v-1087h-111v152h-4q-44 -88 -118 -132.5t-161 -44.5q-130 0 -204 71.5t-74 219.5zM319 1223h-122l196 288h123l197 -288h-123l-135 204z" />
    <glyph glyph-name="udieresis" unicode="&#xfc;" horiz-adv-x="909" 
d="M119 266v821h123v-765q0 -130 45 -187t143 -57q105 0 171.5 76.5t66.5 201.5v731h123v-1087h-111v152h-4q-44 -88 -118 -132.5t-161 -44.5q-130 0 -204 71.5t-74 219.5zM240 1266v209h122v-209h-122zM547 1266v209h123v-209h-123z" />
    <glyph glyph-name="yacute" unicode="&#xfd;" horiz-adv-x="757" 
d="M328 -10l-314 1097h131l244 -942h4l219 942h131l-317 -1175q-43 -159 -103.5 -215.5t-185.5 -56.5q-32 0 -82 4v102q54 -4 80 -4q61 0 99 31.5t63 113.5zM444 1511h146l-201 -288h-98z" />
    <glyph glyph-name="thorn" unicode="&#xfe;" horiz-adv-x="909" 
d="M106 -360v1822h123v-555h4q25 93 95 149t159 56q178 0 263.5 -142t85.5 -427q0 -284 -85.5 -426t-263.5 -142q-100 0 -166.5 51t-87.5 138h-4v-524h-123zM229 543q0 -116 13 -202t34 -135.5t53.5 -79t64.5 -39t73 -9.5t72.5 9.5t64 39t53.5 79t34.5 135.5t13.5 202
q0 117 -13.5 203t-34.5 136t-53.5 79.5t-64 39t-72.5 9.5t-73 -9.5t-64.5 -39t-53.5 -79.5t-34 -136t-13 -203z" />
    <glyph glyph-name="ydieresis" unicode="&#xff;" horiz-adv-x="757" 
d="M328 -10l-314 1097h131l244 -942h4l219 942h131l-317 -1175q-43 -159 -103.5 -215.5t-185.5 -56.5q-32 0 -82 4v102q54 -4 80 -4q61 0 99 31.5t63 113.5zM164 1266v209h123v-209h-123zM471 1266v209h123v-209h-123z" />
    <glyph glyph-name="dotlessi" unicode="&#x131;" horiz-adv-x="376" 
d="M127 0v1087h123v-1087h-123z" />
    <glyph glyph-name="Lslash" unicode="&#x141;" 
d="M115 0v586l-144 -99v123l144 99v753h131v-663l381 260v-123l-381 -260v-565h606v-111h-737z" />
    <glyph glyph-name="lslash" unicode="&#x142;" horiz-adv-x="376" 
d="M127 0v647l-127 -135v123l127 135v692h123v-561l127 135v-123l-127 -135v-778h-123z" />
    <glyph glyph-name="OE" unicode="&#x152;" horiz-adv-x="1593" 
d="M840 485v521q0 142 -31 223.5t-92 114t-164 32.5q-108 0 -180.5 -61.5t-114 -207t-41.5 -376.5t41.5 -376.5t114 -207t180.5 -61.5q152 0 219.5 92t67.5 307zM840 1343v119h694v-110h-563v-533h524v-110h-524v-598h581v-111h-712v131h-4q-31 -76 -106.5 -116t-176.5 -40
q-467 0 -467 756t467 756q112 0 178 -36.5t105 -107.5h4z" />
    <glyph glyph-name="oe" unicode="&#x153;" horiz-adv-x="1441" 
d="M1231 360h123q-10 -184 -98.5 -284.5t-235.5 -100.5q-98 0 -169 50.5t-114 175.5h-4q-31 -108 -104 -167t-176 -59q-182 0 -278.5 144t-96.5 426q0 280 96.5 423.5t278.5 143.5q109 0 185.5 -56.5t106.5 -170.5h5q28 109 99.5 168t182.5 59q179 0 255.5 -137.5
t76.5 -435.5h-561v-60q0 -199 58.5 -300t154.5 -101q90 0 152 80t63 202zM209 545q0 -245 64.5 -356t170.5 -111q50 0 91.5 24.5t74.5 77.5t51.5 146t18.5 219q0 244 -65 354.5t-171 110.5t-170.5 -110.5t-64.5 -354.5zM803 641h430q-3 369 -215 369q-210 0 -215 -369z" />
    <glyph glyph-name="Scaron" unicode="&#x160;" horiz-adv-x="983" 
d="M887 1087h-131q0 138 -65.5 213.5t-196.5 75.5q-129 0 -203 -74.5t-74 -187.5q0 -70 24.5 -122t65.5 -84.5t94 -57t112 -43.5t117.5 -39t111.5 -49.5t94 -68.5t65.5 -102t24.5 -145q0 -208 -119 -318t-324 -110q-207 0 -316.5 110.5t-109.5 324.5v43h131v-56
q0 -143 75 -227t216 -84q145 0 230.5 74.5t85.5 222.5q0 69 -24.5 121t-65.5 84t-94 56t-112 42.5t-117.5 39t-111.5 50t-94 70t-65.5 105t-24.5 149.5q0 174 107.5 280.5t295.5 106.5q398 0 398 -400zM231 1821h123l138 -207l137 207h123l-201 -289h-123z" />
    <glyph glyph-name="scaron" unicode="&#x161;" horiz-adv-x="796" 
d="M463 473l-172 68q-209 80 -209 258q0 159 88.5 236t235.5 77q299 0 299 -303v-31h-123v31q0 201 -179 201q-103 0 -150.5 -49t-47.5 -136q0 -63 30.5 -106t116.5 -76l178 -68q203 -76 203 -276q0 -146 -85.5 -235t-250.5 -89q-171 0 -252.5 78.5t-81.5 259.5v35h123v-29
q0 -241 209 -241q99 0 157 52t58 142q0 74 -33.5 122t-113.5 79zM139 1511h123l137 -206l138 206h122l-200 -288h-123z" />
    <glyph glyph-name="Ydieresis" unicode="&#x178;" horiz-adv-x="909" 
d="M389 0v586l-395 876h139l322 -729l321 729h139l-395 -876v-586h-131zM240 1575v209h122v-209h-122zM547 1575v209h123v-209h-123z" />
    <glyph glyph-name="Zcaron" unicode="&#x17d;" horiz-adv-x="946" 
d="M45 0v123l713 1229h-672v110h805v-123l-701 -1228h711v-111h-856zM213 1821h123l137 -207l137 207h123l-201 -289h-122z" />
    <glyph glyph-name="zcaron" unicode="&#x17e;" horiz-adv-x="720" 
d="M37 0v102l516 883h-490v102h621v-102l-516 -883h516v-102h-647zM100 1511h123l137 -206l138 206h123l-201 -288h-123z" />
    <glyph glyph-name="florin" unicode="&#x192;" horiz-adv-x="983" 
d="M229 813l17 90h215l53 266q15 74 43 129t60 86t73.5 49t76 23.5t75.5 5.5q26 0 96 -8l-23 -102q-36 8 -55 8q-41 0 -68 -4.5t-56.5 -21.5t-49.5 -49.5t-39.5 -89t-34.5 -138.5l-28 -154h229l-16 -90h-230l-149 -782q-42 -220 -114 -305.5t-222 -85.5q-71 0 -109 14
l23 102q32 -14 67 -14q72 0 110 21t69 92t59 219l143 739h-215z" />
    <glyph glyph-name="circumflex" unicode="&#x2c6;" horiz-adv-x="380" 
d="M55 1223h-123l197 288h123l197 -288h-123l-136 204z" />
    <glyph glyph-name="caron" unicode="&#x2c7;" horiz-adv-x="380" 
d="M-70 1511h123l137 -206l138 206h123l-201 -288h-123z" />
    <glyph glyph-name="uni02C9" unicode="&#x2c9;" horiz-adv-x="380" 
d="M-53 1323v90h487v-90h-487z" />
    <glyph glyph-name="breve" unicode="&#x2d8;" horiz-adv-x="380" 
d="M-57 1487h90q8 -71 53 -119q41 -41 104 -41t106 42t52 118h90q-7 -115 -75 -182.5t-173 -67.5t-172.5 67.5t-74.5 182.5z" />
    <glyph glyph-name="dotaccent" unicode="&#x2d9;" horiz-adv-x="380" 
d="M129 1266v209h123v-209h-123z" />
    <glyph glyph-name="ring" unicode="&#x2da;" horiz-adv-x="380" 
d="M-4 1395q0 79 57 136.5t137 57.5t137.5 -57.5t57.5 -136.5t-57.5 -137t-137.5 -58q-79 0 -136.5 57.5t-57.5 137.5zM70 1395q0 -51 34.5 -86t85.5 -35t86 35t35 86t-35 86t-86 35t-85.5 -35t-34.5 -86z" />
    <glyph glyph-name="ogonek" unicode="&#x2db;" horiz-adv-x="380" 
d="M238 12h96q-107 -73 -152 -134.5t-45 -125.5q0 -46 29 -71t84 -25q57 0 121 39l26 -60q-77 -53 -188 -53q-94 0 -138 42t-44 106q0 82 54 158t157 124z" />
    <glyph glyph-name="tilde" unicode="&#x2dc;" horiz-adv-x="380" 
d="M375 1470h90q-2 -71 -46 -135.5t-112 -64.5q-47 0 -100 30l-78 43q-34 17 -49 17q-27 0 -47 -29.5t-27 -68.5h-90q3 71 48.5 135.5t107.5 64.5q33 0 55.5 -7.5t60.5 -29.5l54 -30q38 -23 61 -23q31 0 52.5 34t19.5 64z" />
    <glyph glyph-name="hungarumlaut" unicode="&#x2dd;" horiz-adv-x="380" 
d="M100 1511h146l-201 -288h-96zM410 1511h145l-201 -288h-96z" />
    <glyph glyph-name="uni03A9" unicode="&#x3a9;" horiz-adv-x="1273" 
d="M365 100v6q-109 112 -178.5 282.5t-69.5 375.5q0 307 150 493.5t376 186.5q150 0 267.5 -89.5t180 -242t62.5 -340.5q0 -212 -72 -388t-176 -278v-6h273v-100h-414v74q115 96 194.5 275t79.5 399q0 82 -15 164.5t-47.5 160t-78.5 137t-112 95.5t-144 36
q-122 0 -216.5 -78.5t-144 -213t-49.5 -301.5q0 -210 82.5 -397.5t194.5 -276.5v-74h-414v100h271z" />
    <glyph glyph-name="uni03BC" unicode="&#x3bc;" horiz-adv-x="909" 
d="M119 -360v1447h123v-765q0 -130 45 -187t143 -57q105 0 171.5 76.5t66.5 201.5v731h123v-1087h-111v152h-4q-44 -88 -118 -132.5t-161 -44.5q-118 0 -151 50h-4v-385h-123z" />
    <glyph glyph-name="pi" unicode="&#x3c0;" horiz-adv-x="1005" 
d="M952 952h-145v-663q0 -195 27 -289h-109q-31 60 -31 276v676h-338q-8 -232 -47 -524.5t-88 -427.5h-110q51 155 89 437t44 515q-141 0 -201 -24l-20 78q73 49 247 49h695z" />
    <glyph glyph-name="endash" unicode="&#x2013;" horiz-adv-x="1024" 
d="M0 637h1024v-111h-1024v111z" />
    <glyph glyph-name="emdash" unicode="&#x2014;" horiz-adv-x="2048" 
d="M0 637h2048v-111h-2048v111z" />
    <glyph glyph-name="quoteleft" unicode="&#x2018;" horiz-adv-x="491" 
d="M170 971v209q0 68 10.5 118t46 96t95.5 68v-82q-39 -24 -54.5 -69.5t-17.5 -130.5h59v-209h-139z" />
    <glyph glyph-name="quoteright" unicode="&#x2019;" horiz-adv-x="491" 
d="M182 1253v209h140v-209q0 -68 -10.5 -118t-46 -96t-95.5 -68v82q39 24 54.5 69.5t17.5 130.5h-60z" />
    <glyph glyph-name="quotesinglbase" unicode="&#x201a;" horiz-adv-x="491" 
d="M182 0v209h140v-209q0 -50 -6 -89.5t-22 -79t-47 -68.5t-77 -46v82q39 24 54.5 70t17.5 131h-60z" />
    <glyph glyph-name="quotedblleft" unicode="&#x201c;" horiz-adv-x="720" 
d="M420 971v209q0 50 6 89.5t21.5 78.5t46.5 68t77 46v-82q-39 -24 -54 -69t-17 -131h59v-209h-139zM150 971v209q0 50 6 89.5t21.5 78.5t46.5 68t77 46v-82q-39 -24 -54.5 -69.5t-17.5 -130.5h60v-209h-139z" />
    <glyph glyph-name="quotedblright" unicode="&#x201d;" horiz-adv-x="720" 
d="M162 1253v209h139v-209q0 -50 -6 -89.5t-21.5 -78.5t-46.5 -68t-77 -46v82q39 24 54 69t17 131h-59zM432 1253v209h139v-209q0 -50 -6 -89.5t-21.5 -78.5t-46.5 -68t-77 -46v82q39 24 54.5 69.5t17.5 130.5h-60z" />
    <glyph glyph-name="quotedblbase" unicode="&#x201e;" horiz-adv-x="720" 
d="M162 0v209h139v-209q0 -50 -6 -89.5t-21.5 -79t-46.5 -68.5t-77 -46v82q39 24 54 69.5t17 131.5h-59zM432 0v209h139v-209q0 -50 -6 -89.5t-21.5 -79t-46.5 -68.5t-77 -46v82q39 24 54.5 70t17.5 131h-60z" />
    <glyph glyph-name="dagger" unicode="&#x2020;" horiz-adv-x="983" 
d="M430 1004v458h123v-458h360v-103h-360v-1198h-123v1198h-360v103h360z" />
    <glyph glyph-name="daggerdbl" unicode="&#x2021;" horiz-adv-x="983" 
d="M430 1462h123v-422h360v-102h-360v-711h360v-102h-360v-422h-123v422h-360v102h360v711h-360v102h360v422z" />
    <glyph glyph-name="bullet" unicode="&#x2022;" horiz-adv-x="1024" 
d="M147 731q0 151 107 258t258 107t258 -107t107 -258t-107 -257.5t-258 -106.5t-258 106.5t-107 257.5z" />
    <glyph glyph-name="ellipsis" unicode="&#x2026;" horiz-adv-x="2048" 
d="M272 0v209h140v-209h-140zM954 0v209h140v-209h-140zM1636 0v209h140v-209h-140z" />
    <glyph glyph-name="perthousand" unicode="&#x2030;" horiz-adv-x="2048" 
d="M219 1073q0 -287 148 -287q71 0 109 65.5t38 221.5q0 155 -38 221t-109 66q-148 0 -148 -287zM354 -25l629 1475h102l-628 -1475h-103zM918 352q0 -155 38.5 -220.5t108.5 -65.5q71 0 109 65t38 221q0 155 -38 221t-109 66q-147 0 -147 -287zM109 1073q0 109 17 183.5
t51 116.5t80 59.5t110 17.5t110 -17.5t80 -59.5t51 -116.5t17 -183.5t-17 -183.5t-51 -116.5t-80 -59.5t-110 -17.5t-110 17.5t-80 59.5t-51 116.5t-17 183.5zM807 352q0 109 17 183.5t51 116.5t80 59.5t110 17.5t110 -17.5t80 -59.5t51 -116.5t17 -183.5t-17 -183.5
t-51 -116.5t-80 -59.5t-110 -17.5t-110 17.5t-80 59.5t-51 116.5t-17 183.5zM1534 352q0 -155 38.5 -220.5t108.5 -65.5q71 0 109.5 65t38.5 221q0 155 -38.5 221t-109.5 66q-147 0 -147 -287zM1423 352q0 109 17 183.5t51 116.5t80 59.5t110 17.5t110 -17.5t80 -59.5
t51 -116.5t17 -183.5t-17 -183.5t-51 -116.5t-80 -59.5t-110 -17.5t-110 17.5t-80 59.5t-51 116.5t-17 183.5z" />
    <glyph glyph-name="guilsinglleft" unicode="&#x2039;" horiz-adv-x="493" 
d="M119 520v123l256 285v-140l-182 -206l182 -207v-139z" />
    <glyph glyph-name="guilsinglright" unicode="&#x203a;" horiz-adv-x="493" 
d="M119 236v139l182 207l-182 206v140l256 -285v-123z" />
    <glyph glyph-name="fraction" unicode="&#x2044;" horiz-adv-x="342" 
d="M-342 -61l924 1548h102l-924 -1548h-102z" />
    <glyph glyph-name="Euro" unicode="&#x20ac;" horiz-adv-x="983" 
d="M977 1362l-49 -113q-81 50 -141 73.5t-134 23.5q-72 0 -128 -25t-91 -64t-60 -97t-37 -113.5t-20 -124.5h527l-37 -111h-498q-2 -23 -2 -66v-65h469l-39 -111h-428q4 -54 9.5 -98t17 -96.5t27.5 -93t42.5 -80t60 -65.5t81.5 -42t106 -16q83 0 142.5 31.5t138.5 99.5v-150
q-68 -47 -132.5 -65.5t-150.5 -18.5q-108 0 -190 32.5t-133 84.5t-85.5 132t-49.5 160.5t-23 184.5h-141l37 111h100v65q0 43 2 66h-139l37 111h110q60 532 486 532q148 0 315 -92z" />
    <glyph glyph-name="afii61289" unicode="&#x2113;" horiz-adv-x="862" 
d="M760 262l57 -47q-115 -229 -321 -229q-77 0 -134 30.5t-90.5 86t-50 125t-18.5 155.5v29q-62 -55 -105 -95l-41 70q9 9 65 60t81 79v568q0 106 15.5 189.5t41 136t61 86.5t72 47.5t76.5 13.5q103 0 158 -86.5t55 -227.5q0 -346 -371 -749v-70q0 -185 56.5 -269.5
t148.5 -84.5q79 0 141.5 53.5t102.5 128.5zM311 1102v-471q137 164 214 316.5t77 303.5q0 222 -135 222q-64 0 -110 -91t-46 -280z" />
    <glyph glyph-name="trademark" unicode="&#x2122;" horiz-adv-x="2027" 
d="M362 618v754h-276v90h655v-90h-276v-754h-103zM1339 778l263 684h176v-844h-103v754h-4l-305 -754h-61l-306 754h-4v-754h-102v844h176z" />
    <glyph glyph-name="Omega" unicode="&#x2126;" horiz-adv-x="1273" 
d="M365 100v6q-109 112 -178.5 282.5t-69.5 375.5q0 307 150 493.5t376 186.5q150 0 267.5 -89.5t180 -242t62.5 -340.5q0 -212 -72 -388t-176 -278v-6h273v-100h-414v74q115 96 194.5 275t79.5 399q0 82 -15 164.5t-47.5 160t-78.5 137t-112 95.5t-144 36
q-122 0 -216.5 -78.5t-144 -213t-49.5 -301.5q0 -210 82.5 -397.5t194.5 -276.5v-74h-414v100h271z" />
    <glyph glyph-name="estimated" unicode="&#x212e;" horiz-adv-x="1777" 
d="M1706 692h-1325q-10 0 -10 -8v-401q0 -25 16 -47q99 -103 228.5 -160.5t273.5 -57.5q154 0 291 65.5t237 178.5h117q-111 -131 -281.5 -208t-365.5 -77q-166 0 -317.5 58t-261 156.5t-174 235t-64.5 286.5q0 201 109.5 370.5t297.5 268t410 98.5q168 0 319.5 -58
t261 -157t174 -235.5t64.5 -286.5v-21zM1405 743v406q0 28 -19 47q-100 98 -227.5 153.5t-269.5 55.5q-143 0 -272 -57t-228 -158q-18 -21 -18 -51v-396q0 -12 10 -12h1016q8 0 8 12z" />
    <glyph glyph-name="partialdiff" unicode="&#x2202;" horiz-adv-x="968" 
d="M184 1397l-43 88q124 108 291 108q69 0 132 -27t120.5 -87t100 -147t67.5 -216.5t25 -286.5q0 -254 -51.5 -442t-155.5 -294.5t-252 -106.5q-108 0 -185.5 63t-114 165.5t-36.5 231.5q0 115 32 214.5t85.5 165.5t123 103.5t144.5 37.5q57 0 109 -19t88.5 -48.5t60.5 -58
t37 -55.5h2q2 23 2 86q0 274 -101 447.5t-243 173.5q-134 0 -238 -96zM426 84h2q86 0 156.5 78t112 204.5t53.5 282.5q-27 84 -99.5 151.5t-169.5 67.5q-117 0 -201.5 -123t-84.5 -296q0 -166 62.5 -265.5t168.5 -99.5z" />
    <glyph glyph-name="Delta" unicode="&#x2206;" horiz-adv-x="1146" 
d="M61 0v84l453 1374h127l446 -1372v-86h-1026zM174 96h793l-273 834q-12 40 -59 177.5t-60 192.5h-8q-9 -48 -52 -175.5t-54 -168.5z" />
    <glyph glyph-name="product" unicode="&#x220f;" horiz-adv-x="1239" 
d="M1188 1313h-195v-1510h-110v1510h-529v-1510h-110v1510h-195v108h1139v-108z" />
    <glyph glyph-name="summation" unicode="&#x2211;" horiz-adv-x="993" 
d="M950 -197h-907v82l498 725l-473 727v84h850v-102h-695v-6l447 -686l-484 -703v-8h764v-113z" />
    <glyph glyph-name="minus" unicode="&#x2212;" horiz-adv-x="1228" 
d="M96 467v102h1037v-102h-1037z" />
    <glyph glyph-name="uni2215" unicode="&#x2215;" horiz-adv-x="342" 
d="M-342 -61l924 1548h102l-924 -1548h-102z" />
    <glyph glyph-name="uni2219" unicode="&#x2219;" horiz-adv-x="491" 
d="M133 672q0 46 33.5 79t79.5 33t79 -33t33 -79t-33 -79.5t-79 -33.5t-79.5 33.5t-33.5 79.5z" />
    <glyph glyph-name="radical" unicode="&#x221a;" horiz-adv-x="1034" 
d="M1024 1688l-399 -1999h-105l-297 962l-135 -49l-25 76l236 88l240 -766q28 -135 30 -150h2q2 16 5.5 40t9 56t8.5 50l342 1692h88z" />
    <glyph glyph-name="infinity" unicode="&#x221e;" horiz-adv-x="1445" 
d="M1352 594v-2q0 -128 -84 -209.5t-199 -81.5q-85 0 -161 52t-183 171q-46 -53 -77 -83.5t-77.5 -67.5t-96 -54.5t-103.5 -17.5q-115 0 -196 83t-81 202q0 125 82 208t207 83q51 0 99 -18t92.5 -53.5t79 -70.5t77.5 -86q39 44 51.5 57.5t48 50t57 50.5t55.5 34.5t68 28
t72 7.5q121 0 195 -79t74 -204zM381 379h2q30 0 60.5 10.5t52 22.5t53 39.5t45 40.5t46.5 49t40 43q-38 46 -53 63.5t-52 55t-63 53.5t-65 30.5t-78 14.5q-88 0 -139.5 -63.5t-49.5 -153.5q0 -88 56 -146.5t145 -58.5zM1075 801h-2q-37 0 -73 -14t-70.5 -42t-57 -49.5
t-56 -59t-42.5 -46.5q60 -63 88.5 -92t69.5 -62t74 -45t71 -12q86 0 138.5 62.5t52.5 144.5q0 100 -54.5 157.5t-138.5 57.5z" />
    <glyph glyph-name="integral" unicode="&#x222b;" horiz-adv-x="647" 
d="M614 1704l-22 -82q-29 18 -66 18q-59 0 -94 -49q-35 -45 -49 -129t-14 -239q0 -157 11 -517t11 -522q0 -288 -84 -413q-27 -43 -72.5 -66.5t-97.5 -23.5q-30 0 -62 9.5t-48 20.5l24 86q47 -20 80 -20q54 0 88 49q64 93 64 358q0 165 -11.5 529.5t-11.5 519.5
q0 167 21 265t73 157q67 76 166 76q54 0 94 -27z" />
    <glyph glyph-name="approxequal" unicode="&#x2248;" horiz-adv-x="1026" 
d="M887 844l53 -41q-83 -180 -233 -180q-35 0 -71.5 11t-62.5 24.5t-79 43.5q-108 64 -175 64q-58 0 -99.5 -36.5t-80.5 -104.5l-55 41q40 85 105 131.5t143 46.5q26 0 50.5 -5t49 -15.5t39.5 -18t39.5 -22t30.5 -17.5q5 -3 24.5 -14.5t25.5 -14.5t22 -11.5t24.5 -11
t22.5 -7t26.5 -6t26.5 -1.5q55 0 94 34.5t80 109.5zM887 535l53 -41q-86 -179 -233 -179q-35 0 -71 11t-61 23.5t-81 43.5q-37 22 -59 33.5t-53.5 22t-59.5 10.5q-60 0 -102.5 -38t-80.5 -106l-55 41q40 85 105 133t143 48q31 0 65 -9.5t52 -18t52.5 -28t39.5 -22.5
q4 -2 24.5 -14t25.5 -15t22 -11.5t25 -11t22.5 -7t27.5 -6t27 -1.5q53 0 92 34.5t80 107.5z" />
    <glyph glyph-name="notequal" unicode="&#x2260;" horiz-adv-x="1026" 
d="M723 981l-84 -184h289v-82h-322l-125 -275h447v-80h-479l-99 -217l-63 29l84 188h-277v80h312l122 275h-434v82h467l96 213z" />
    <glyph glyph-name="lessequal" unicode="&#x2264;" horiz-adv-x="1026" 
d="M924 217l-820 430v82l820 430v-100l-729 -367v-4l729 -371v-100zM930 51h-834v84h834v-84z" />
    <glyph glyph-name="greaterequal" unicode="&#x2265;" horiz-adv-x="1026" 
d="M106 1159l820 -430v-82l-820 -430v100l730 369v4l-730 369v100zM928 51h-832v84h832v-84z" />
    <glyph glyph-name="lozenge" unicode="&#x25ca;" horiz-adv-x="1036" 
d="M932 711l-369 -789h-94l-367 789l369 788h96zM825 707l-272 579q-16 37 -35 107h-4q-15 -58 -35 -107l-270 -573l274 -582q24 -62 31 -104h8q7 44 31 102z" />
    </font>
</defs>
</svg>
