<?xml version="1.0" standalone="no"?>
<!DOCTYPE svg PUBLIC "-//W3C//DTD SVG 1.1//EN" "http://www.w3.org/Graphics/SVG/1.1/DTD/svg11.dtd" >
<svg xmlns="http://www.w3.org/2000/svg" xmlns:xlink="http://www.w3.org/1999/xlink" version="1.1">
<metadata>
Created by FontForge 20170731 at Sat Jul  1 12:55:44 2023
 By Aleksey,,,
Copyright (c) 1990, 2002 Adobe Systems Incorporated.  All Rights Reserved. (c) 1981, 2002 Heidelberger Druckmaschinen AG. All rights reserved.
</metadata>
<defs>
<font id="font__helvetica-rounded-lt-st--500" horiz-adv-x="454" >
  <font-face 
    font-family="font__helvetica-rounded-lt-st"
    font-weight="500"
    font-stretch="condensed"
    units-per-em="2048"
    panose-1="2 11 6 6 3 5 2 3 2 4"
    ascent="1462"
    descent="-586"
    x-height="1102"
    cap-height="1462"
    bbox="-336 -442 2111 1948"
    underline-thickness="102"
    underline-position="-307"
    unicode-range="U+0020-FB02"
  />
<missing-glyph horiz-adv-x="1024" 
d="M0 0v1434h1024v-1434h-1024zM512 809l348 522h-696zM573 717l349 -522v1044zM164 102h696l-348 523zM102 1239v-1044l349 522z" />
    <glyph glyph-name="fi" unicode="fi" horiz-adv-x="1024" 
d="M686 0v1102h221v-1102h-221zM686 1257v222h221v-222h-221zM174 0v938h-154v164h154v102q0 151 69.5 213t211.5 62q71 0 120 -6v-170h-61q-62 0 -90.5 -25t-28.5 -80v-96h180v-164h-180v-938h-221z" />
    <glyph glyph-name="fl" unicode="fl" horiz-adv-x="1024" 
d="M686 0v1462h221v-1462h-221zM174 0v938h-154v164h154v102q0 151 69.5 213t211.5 62q71 0 120 -6v-170h-61q-62 0 -90.5 -25t-28.5 -80v-96h180v-164h-180v-938h-221z" />
    <glyph glyph-name=".notdef" horiz-adv-x="1024" 
d="M0 0v1434h1024v-1434h-1024zM512 809l348 522h-696zM573 717l349 -522v1044zM164 102h696l-348 523zM102 1239v-1044l349 522z" />
    <glyph glyph-name=".null" horiz-adv-x="0" 
 />
    <glyph glyph-name="nonmarkingreturn" horiz-adv-x="682" 
 />
    <glyph glyph-name="space" unicode=" " horiz-adv-x="491" 
 />
    <glyph glyph-name="exclam" unicode="!" horiz-adv-x="569" 
d="M203 393l-35 606v463h233v-463l-34 -606h-164zM168 0v233h233v-233h-233z" />
    <glyph glyph-name="quotedbl" unicode="&#x22;" horiz-adv-x="872" 
d="M541 877v585h176v-585h-176zM156 877v585h176v-585h-176z" />
    <glyph glyph-name="numbersign" unicode="#" horiz-adv-x="983" 
d="M362 561h218l41 299h-218zM-6 410v151h199l40 299h-180v152h201l57 409h170l-57 -409h217l57 409h170l-57 -409h178v-152h-198l-41 -299h180v-151h-201l-57 -410h-170l57 410h-217l-57 -410h-170l57 410h-178z" />
    <glyph glyph-name="dollar" unicode="$" horiz-adv-x="983" 
d="M532 588v-441q88 13 136.5 72t48.5 133q0 99 -44.5 153t-140.5 83zM442 856v418q-68 -6 -111.5 -59t-43.5 -146q0 -73 36.5 -125t118.5 -88zM442 -205v176q-100 5 -175.5 34t-119 70.5t-70.5 100t-35.5 112.5t-8.5 118v32h233v-32q0 -117 40.5 -179.5t135.5 -79.5v476
l-84 30q-162 59 -233.5 150.5t-71.5 245.5q0 175 111.5 288t277.5 113v143h90v-143q89 0 159.5 -25.5t112.5 -65t69.5 -91.5t38 -100t10.5 -95v-29h-234v29q0 185 -156 201v-453l130 -45q151 -54 219.5 -143t68.5 -234q0 -206 -110 -311.5t-308 -116.5v-176h-90z" />
    <glyph glyph-name="percent" unicode="%" horiz-adv-x="1554" 
d="M354 1323q-61 0 -82.5 -59t-21.5 -207t21.5 -207t82.5 -59t83 59.5t22 206.5t-22 206.5t-83 59.5zM1018 1450h158l-654 -1479h-153zM1200 631q-61 0 -82.5 -59t-21.5 -207t21.5 -207.5t82.5 -59.5t83 60t22 207t-22 206.5t-83 59.5zM354 1450q64 0 113 -19t88 -62.5
t59.5 -122t20.5 -189.5t-20.5 -189.5t-59.5 -122t-88 -62.5t-113 -19t-112.5 19t-87.5 62.5t-59.5 122t-20.5 189.5t20.5 189.5t59.5 122t87.5 62.5t112.5 19zM1200 758q64 0 113 -19t88 -62.5t59.5 -122t20.5 -189.5t-20.5 -189.5t-59.5 -122.5t-88 -63t-113 -19t-112.5 19
t-87.5 63t-59.5 122.5t-20.5 189.5t20.5 189.5t59.5 122t87.5 62.5t112.5 19z" />
    <glyph glyph-name="ampersand" unicode="&#x26;" horiz-adv-x="1175" 
d="M606 803l256 -361q26 43 42 104t16 120v28h184v-18q0 -79 -29 -191t-96 -206l199 -279h-248l-88 125q-80 -73 -167 -113.5t-202 -40.5q-97 0 -174 27.5t-124 70t-77.5 98t-42.5 107t-12 101.5q0 229 205 383l92 69l-55 82q-95 149 -95 240q0 151 98 232t251 81
q37 0 75.5 -7t84 -27.5t80 -52t58 -86t23.5 -124.5q0 -95 -46.5 -169t-131.5 -138zM506 938l51 47q32 30 52 53.5t37.5 61t17.5 74.5q0 64 -37.5 100.5t-102.5 36.5q-53 0 -95 -31t-42 -96q0 -88 86 -203zM442 688l-43 -37q-135 -109 -135 -260q0 -98 73 -165.5t175 -67.5
q123 0 227 112z" />
    <glyph glyph-name="quotesingle" unicode="'" horiz-adv-x="491" 
d="M158 877v585h176v-585h-176z" />
    <glyph glyph-name="parenleft" unicode="(" horiz-adv-x="530" 
d="M377 1462h153q-233 -389 -233 -919q0 -247 58 -492.5t175 -427.5h-157q-131 172 -214 413t-83 507q0 265 84.5 505t216.5 414z" />
    <glyph glyph-name="parenright" unicode=")" horiz-adv-x="530" 
d="M154 -377h-154q233 389 233 920q0 246 -58 491t-175 428h158q131 -172 214 -412.5t83 -506.5q0 -265 -84.5 -506t-216.5 -414z" />
    <glyph glyph-name="asterisk" unicode="*" horiz-adv-x="757" 
d="M311 1462h140v-254l227 88l47 -135l-233 -67l159 -211l-114 -88l-156 215l-152 -215l-114 88l155 211l-237 67l47 135l231 -90v256z" />
    <glyph glyph-name="plus" unicode="+" horiz-adv-x="1228" 
d="M526 606v430h176v-430h431v-176h-431v-430h-176v430h-430v176h430z" />
    <glyph glyph-name="comma" unicode="," horiz-adv-x="491" 
d="M129 0v270h233v-270q0 -131 -52.5 -210.5t-180.5 -104.5v118q48 12 75 55.5t27 110.5v31h-102z" />
    <glyph glyph-name="hyphen" unicode="-" horiz-adv-x="720" 
d="M92 487v209h537v-209h-537z" />
    <glyph glyph-name="period" unicode="." horiz-adv-x="491" 
d="M129 0v270h233v-270h-233z" />
    <glyph glyph-name="slash" unicode="/" horiz-adv-x="606" 
d="M-20 -29l464 1520h183l-465 -1520h-182z" />
    <glyph glyph-name="zero" unicode="0" horiz-adv-x="983" 
d="M291 711q0 -324 42 -450t159 -126t158.5 125.5t41.5 450.5q0 324 -41.5 449.5t-158.5 125.5q-118 0 -159.5 -125.5t-41.5 -449.5zM57 711q0 167 19 293t53.5 210.5t89 137.5t121 75.5t152.5 22.5t152.5 -22.5t120.5 -75.5t89 -137.5t53.5 -210.5t18.5 -293t-18.5 -293
t-53.5 -211t-89 -137.5t-120.5 -75.5t-152.5 -23t-152.5 23t-121 75.5t-89 137.5t-53.5 211t-19 293z" />
    <glyph glyph-name="one" unicode="1" horiz-adv-x="983" 
d="M657 0h-233v1053h-301v151h22q294 0 342 217v29h170v-1450z" />
    <glyph glyph-name="two" unicode="2" horiz-adv-x="983" 
d="M915 197v-197h-847q0 128 33.5 233t87 176.5t118.5 132.5t130 115.5t118.5 110.5t87 132t33.5 167q0 97 -44.5 158t-135.5 61q-50 0 -87.5 -18t-59 -46t-35 -69.5t-17.5 -81t-4 -88.5h-221q0 226 102 346.5t326 120.5q108 0 188.5 -30.5t128 -84.5t70 -122t22.5 -150
q0 -98 -26 -180t-70 -141t-97.5 -110t-112.5 -98t-111 -94t-97 -109.5t-67 -133.5h587z" />
    <glyph glyph-name="three" unicode="3" horiz-adv-x="983" 
d="M63 403h222q0 -52 9 -96t30 -84.5t61.5 -64t97.5 -23.5q103 0 153 72t50 188q0 138 -53.5 204.5t-181.5 66.5h-91v163h84q209 0 209 248q0 87 -41.5 148t-126.5 61q-52 0 -89 -20.5t-57 -57.5t-29 -80.5t-9 -95.5h-221q0 204 106 311t312 107q56 0 107.5 -10.5t104 -37
t91 -67t62.5 -106.5t24 -150q0 -117 -64 -208.5t-168 -108.5v-6q116 -9 190.5 -98.5t74.5 -237.5q0 -218 -111 -333.5t-332 -115.5q-414 0 -414 432z" />
    <glyph glyph-name="four" unicode="4" horiz-adv-x="983" 
d="M43 326v200l502 924h237v-938h158v-186h-158v-326h-221v326h-518zM561 512v598h-4l-326 -598h330z" />
    <glyph glyph-name="five" unicode="5" horiz-adv-x="983" 
d="M66 360v31h221v-39q0 -88 48.5 -146.5t141.5 -58.5q58 0 100 27t64.5 75t32.5 104t10 124q0 309 -195 309q-73 0 -124 -36t-66 -97l-207 9l72 759h698v-186h-524l-47 -381l4 -4q46 53 110 83t134 30q88 0 155.5 -29t109 -75.5t68 -111t36.5 -128.5t10 -136
q0 -112 -26.5 -203.5t-79.5 -161.5t-140 -108.5t-201 -38.5q-195 0 -300 99.5t-105 289.5z" />
    <glyph glyph-name="six" unicode="6" horiz-adv-x="983" 
d="M905 1098h-233q0 74 -38 131t-118 57q-45 0 -81.5 -17.5t-60 -44t-41 -69.5t-26.5 -83t-14.5 -95.5t-6.5 -96t-1 -94.5l6 -4q84 154 282 154q157 0 258 -112t101 -320q0 -257 -110 -395t-335 -138q-90 0 -159.5 22t-117 66.5t-79 102.5t-49 140t-24.5 167.5t-7 196.5
q0 140 11 249.5t42 213t81.5 171.5t133.5 109t195 41q391 0 391 -352zM305 436q0 -133 51.5 -217t149.5 -84q52 0 90 24t60 68t32 98t10 121q0 314 -192 314q-61 0 -102.5 -25t-62 -73t-28.5 -101t-8 -125z" />
    <glyph glyph-name="seven" unicode="7" horiz-adv-x="983" 
d="M61 1212v209h861v-184q-174 -228 -303.5 -572t-153.5 -665h-246q24 312 159.5 645t317.5 567h-635z" />
    <glyph glyph-name="eight" unicode="8" horiz-adv-x="983" 
d="M309 1069q0 -221 183 -221q182 0 182 221q0 217 -182 217q-183 0 -183 -217zM287 410q0 -61 9.5 -108t31.5 -86t63.5 -60t100.5 -21t100.5 21t63.5 60.5t31 86t9 107.5q0 129 -45 201.5t-159 72.5q-60 0 -101 -20.5t-63 -59.5t-31.5 -85.5t-9.5 -108.5zM492 -29
q-439 0 -439 435q0 155 67.5 247t180.5 115v4q-201 69 -201 313q0 169 105.5 267t286.5 98t286 -98t105 -267q0 -244 -201 -313v-4q113 -23 180.5 -115t67.5 -247q0 -435 -438 -435z" />
    <glyph glyph-name="nine" unicode="9" horiz-adv-x="983" 
d="M78 324h233q0 -46 13.5 -86.5t50.5 -71.5t92 -31q45 0 81.5 17.5t60 44t41 69.5t26.5 83t14.5 95.5t6.5 96t1 94.5l-6 4q-84 -154 -282 -154q-157 0 -258 112.5t-101 320.5q0 257 110 394.5t335 137.5q78 0 140 -17t107 -47.5t78.5 -78t54.5 -103t33.5 -129.5
t17.5 -149.5t5 -169.5q0 -140 -11 -249.5t-42 -213.5t-81.5 -172t-133.5 -109t-195 -41q-391 0 -391 353zM678 985q0 133 -51.5 217t-149.5 84q-52 0 -90 -24t-60 -68t-32 -98t-10 -121q0 -313 192 -313q61 0 102.5 25t62 72.5t28.5 100.5t8 125z" />
    <glyph glyph-name="colon" unicode=":" horiz-adv-x="491" 
d="M129 778v271h233v-271h-233zM129 0v270h233v-270h-233z" />
    <glyph glyph-name="semicolon" unicode=";" horiz-adv-x="491" 
d="M129 0v270h233v-270q0 -131 -52.5 -210.5t-180.5 -104.5v118q48 12 75 55.5t27 110.5v31h-102zM129 778v271h233v-271h-233z" />
    <glyph glyph-name="less" unicode="&#x3c;" horiz-adv-x="1228" 
d="M96 442v152l1037 463v-176l-828 -363l828 -362v-176z" />
    <glyph glyph-name="equal" unicode="=" horiz-adv-x="1228" 
d="M96 643v176h1037v-176h-1037zM96 217v176h1037v-176h-1037z" />
    <glyph glyph-name="greater" unicode="&#x3e;" horiz-adv-x="1228" 
d="M1133 594v-152l-1037 -462v176l828 362l-828 363v176z" />
    <glyph glyph-name="question" unicode="?" horiz-adv-x="948" 
d="M346 393v123q0 60 16.5 109.5t42.5 84t57.5 66t63.5 63t58 66t42.5 84t16.5 109.5q0 46 -8.5 83t-26.5 68t-51.5 48.5t-79.5 17.5q-99 0 -141.5 -75.5t-42.5 -213.5h-221q0 100 22 182t68.5 146.5t126 100.5t186.5 36q191 0 296.5 -102.5t105.5 -290.5q0 -71 -18 -132.5
t-46 -106t-62.5 -84t-69 -73.5t-62.5 -67.5t-46 -73t-18 -82.5v-86h-209zM332 0v233h233v-233h-233z" />
    <glyph glyph-name="at" unicode="@" horiz-adv-x="1638" 
d="M1004 813q0 197 -166 197q-81 0 -149 -59t-104 -143.5t-36 -168.5q0 -97 47.5 -152t142.5 -55q67 0 130 64.5t99 152.5t36 164zM1104 1124h145l-153 -553q-2 -10 -9 -32t-10.5 -38.5t-3.5 -29.5q0 -23 15 -34t53 -11q90 0 171 125t81 289q0 141 -76 254t-199 173t-266 60
q-130 0 -244.5 -49.5t-193 -132t-123.5 -192t-45 -228.5q0 -131 48 -243t129.5 -187t188.5 -117.5t224 -42.5q159 0 288.5 47.5t216.5 132.5h172q-86 -156 -261 -250t-416 -94q-163 0 -304.5 52.5t-246.5 148.5t-165.5 240.5t-60.5 320.5q0 159 57.5 298t160 241
t251.5 160.5t324 58.5q154 0 288 -46t231 -127t152.5 -198t55.5 -254q0 -118 -35 -218t-90.5 -166t-125.5 -112.5t-138.5 -67.5t-130.5 -21q-74 0 -110 32.5t-34 87.5h-4q-109 -120 -254 -120q-121 0 -202.5 91t-81.5 240q0 142 64 269.5t169.5 203.5t222.5 76
q160 0 236 -157z" />
    <glyph glyph-name="A" unicode="A" horiz-adv-x="1062" 
d="M362 545h347l-168 721h-4zM-18 0l415 1462h299l385 -1462h-243l-90 358h-429l-94 -358h-243z" />
    <glyph glyph-name="B" unicode="B" horiz-adv-x="1099" 
d="M354 846h185q103 0 159 63t56 168q0 63 -17.5 105.5t-52 64.5t-73.5 30.5t-93 8.5h-164v-440zM354 176h232q104 0 159.5 66t55.5 192q0 116 -63.5 182t-166.5 66h-217v-506zM121 0v1462h473q84 0 153.5 -19.5t124 -60t85 -110.5t30.5 -164q0 -265 -215 -332v-4
q128 -23 195 -109.5t67 -263.5q0 -183 -122 -291t-328 -108h-463z" />
    <glyph glyph-name="C" unicode="C" horiz-adv-x="1062" 
d="M786 524h234v-30q0 -83 -13.5 -156t-46.5 -141.5t-83.5 -117.5t-129 -78.5t-178.5 -29.5q-138 0 -231 44.5t-149 141t-79.5 234.5t-23.5 340t23.5 340t79.5 234.5t149.5 141t232.5 44.5q86 0 155 -18t114.5 -46t78.5 -69.5t50.5 -80.5t27.5 -88t12.5 -83t2.5 -74v-26
h-234v24q0 56 -9.5 103.5t-31.5 91t-65 68t-103 22.5q-54 0 -92.5 -15t-69.5 -52.5t-49.5 -103.5t-28.5 -166t-10 -241q0 -233 27.5 -363t80 -178.5t142.5 -48.5q217 0 217 353v24z" />
    <glyph glyph-name="D" unicode="D" horiz-adv-x="1138" 
d="M354 1286v-1110h193q100 0 157.5 49.5t86 170.5t28.5 335q0 209 -26 328.5t-84.5 173t-161.5 53.5h-193zM121 0v1462h416q76 0 138.5 -11t111.5 -31t87.5 -52t66.5 -68.5t48 -86.5t32.5 -100t19.5 -115.5t9.5 -127t2.5 -139.5t-2.5 -139.5t-9.5 -127t-19.5 -115.5
t-32.5 -100t-48 -86.5t-66.5 -68.5t-87.5 -52t-111.5 -31t-138.5 -11h-416z" />
    <glyph glyph-name="E" unicode="E" horiz-adv-x="985" 
d="M121 0v1462h790v-196h-557v-406h525v-196h-525v-467h574v-197h-807z" />
    <glyph glyph-name="F" unicode="F" horiz-adv-x="948" 
d="M121 0v1462h780v-196h-547v-406h514v-196h-514v-664h-233z" />
    <glyph glyph-name="G" unicode="G" horiz-adv-x="1099" 
d="M844 0v170h-4q-49 -104 -121.5 -151.5t-198.5 -47.5q-235 0 -334.5 180.5t-99.5 579.5q0 393 116 576.5t369 183.5q104 0 184.5 -32t125 -78t73 -107t37 -109.5t8.5 -95.5v-27h-221v35q0 44 -10 83.5t-32 75.5t-64 57.5t-99 21.5q-66 0 -110.5 -25t-78 -88.5
t-49.5 -177.5t-16 -287q0 -231 27 -362t76.5 -179.5t132.5 -48.5q133 -1 188.5 102.5t55.5 344.5h-246v176h467v-770h-176z" />
    <glyph glyph-name="H" unicode="H" horiz-adv-x="1138" 
d="M121 0v1462h233v-585h430v585h234v-1462h-234v680h-430v-680h-233z" />
    <glyph glyph-name="I" unicode="I" 
d="M111 0v1462h233v-1462h-233z" />
    <glyph glyph-name="J" unicode="J" horiz-adv-x="909" 
d="M33 440h221v-71q0 -104 33 -162.5t123 -59.5q25 0 46 5.5t36.5 13.5t27 24.5t19 29t13 37t8 40t4 46t1.5 46v49.5v1024h234v-1059q0 -230 -103.5 -332t-289.5 -100q-87 1 -153 22t-106.5 55t-66.5 83.5t-36 101t-11 113.5v94z" />
    <glyph glyph-name="K" unicode="K" horiz-adv-x="1062" 
d="M121 0v1462h233v-637h4l443 637h256l-422 -616l467 -846h-264l-355 657l-129 -184v-473h-233z" />
    <glyph glyph-name="L" unicode="L" horiz-adv-x="909" 
d="M94 0v1462h234v-1265h565v-197h-799z" />
    <glyph glyph-name="M" unicode="M" horiz-adv-x="1478" 
d="M121 0v1462h364l258 -1083h5l253 1083h357v-1462h-221v1217h-4l-295 -1217h-197l-295 1217h-4v-1217h-221z" />
    <glyph glyph-name="N" unicode="N" horiz-adv-x="1175" 
d="M121 0v1462h285l423 -1089h5v1089h221v-1462h-285l-424 1118h-4v-1118h-221z" />
    <glyph glyph-name="O" unicode="O" horiz-adv-x="1138" 
d="M569 -29q-251 0 -367 183.5t-116 576.5t116 576.5t367 183.5t367.5 -183.5t116.5 -576.5t-116.5 -576.5t-367.5 -183.5zM569 147q45 0 79.5 12.5t68 50.5t55 101.5t34.5 171t13 254.5q0 144 -13 249t-34.5 167.5t-55 99.5t-68 49.5t-79.5 12.5t-79.5 -12.5t-68 -49.5
t-55 -99.5t-34.5 -167.5t-13 -249q0 -147 13 -254.5t34.5 -171t55 -101.5t68 -50.5t79.5 -12.5z" />
    <glyph glyph-name="P" unicode="P" horiz-adv-x="1024" 
d="M354 1286v-506h166q103 0 168.5 61t65.5 191q0 125 -58 189.5t-192 64.5h-150zM121 0v1462h463q203 0 303 -114.5t100 -311.5q0 -199 -112.5 -315.5t-315.5 -116.5h-205v-604h-233z" />
    <glyph glyph-name="Q" unicode="Q" horiz-adv-x="1138" 
d="M948 -131l-149 151q-83 -49 -230 -49q-251 0 -367 183.5t-116 576.5t116 576.5t367 183.5t367.5 -183.5t116.5 -576.5q0 -195 -31.5 -345.5t-83.5 -233.5l149 -158zM543 270l133 133l96 -96q47 125 47 430q0 144 -13 249t-34.5 167.5t-55 99.5t-68 49.5t-79.5 12.5
t-79.5 -12.5t-68 -49.5t-55 -99.5t-34.5 -167.5t-13 -249q0 -147 13 -254.5t34.5 -171t55 -101.5t68 -50.5t79.5 -12.5q43 0 84 15z" />
    <glyph glyph-name="R" unicode="R" horiz-adv-x="1099" 
d="M121 0v1462h516q166 0 268.5 -91.5t102.5 -285.5q0 -145 -63.5 -242.5t-180.5 -115.5v-4q112 -11 167.5 -80t61.5 -219q5 -227 8 -297q5 -85 70 -127h-264q-29 34 -39 129q-4 39 -5.5 82.5t-2.5 100t-2 94.5q-3 123 -49.5 176t-163.5 53h-191v-635h-233zM354 811h187
q111 0 172 63.5t61 174.5q0 119 -53.5 178t-167.5 59h-199v-475z" />
    <glyph glyph-name="S" unicode="S" horiz-adv-x="1062" 
d="M68 453h233v-37q0 -269 240 -269q105 0 163 62.5t58 150.5q0 110 -52 170t-157 91l-160 55q-162 62 -233.5 154t-71.5 247q0 197 123 305.5t332 108.5q107 0 186.5 -26.5t121.5 -64.5t67 -94t31.5 -101t6.5 -99v-33h-233v31q0 211 -205 211q-84 0 -140 -51t-56 -160
q0 -92 50 -147.5t169 -100.5l157 -57q156 -56 226.5 -146.5t70.5 -240.5q0 -226 -126.5 -333.5t-356.5 -107.5q-104 0 -184.5 27.5t-128.5 70.5t-78.5 103.5t-41.5 119.5t-11 126v35z" />
    <glyph glyph-name="T" unicode="T" horiz-adv-x="948" 
d="M360 0v1266h-348v196h924v-196h-342v-1266h-234z" />
    <glyph glyph-name="U" unicode="U" horiz-adv-x="1099" 
d="M102 1462h234v-1048q0 -267 215 -267q213 0 213 267v1048h233v-1030q0 -244 -113.5 -352.5t-332.5 -108.5q-220 0 -334.5 108.5t-114.5 352.5v1030z" />
    <glyph glyph-name="V" unicode="V" horiz-adv-x="985" 
d="M332 0l-344 1462h248l247 -1167h4l263 1167h247l-368 -1462h-297z" />
    <glyph glyph-name="W" unicode="W" horiz-adv-x="1517" 
d="M295 0l-283 1462h236l192 -1136h4l193 1136h246l196 -1143h4l191 1143h231l-291 -1462h-270l-188 1102h-4l-187 -1102h-270z" />
    <glyph glyph-name="X" unicode="X" horiz-adv-x="1024" 
d="M0 0l385 743l-352 719h258l233 -485l230 485h252l-355 -719l373 -743h-258l-254 528l-260 -528h-252z" />
    <glyph glyph-name="Y" unicode="Y" horiz-adv-x="985" 
d="M369 0v571l-377 891h260l246 -631l252 631h243l-391 -891v-571h-233z" />
    <glyph glyph-name="Z" unicode="Z" horiz-adv-x="948" 
d="M37 0v184l612 1082h-575v196h831v-196l-612 -1069h618v-197h-874z" />
    <glyph glyph-name="bracketleft" unicode="[" horiz-adv-x="569" 
d="M158 -377v1839h415v-164h-206v-1511h206v-164h-415z" />
    <glyph glyph-name="backslash" unicode="\" horiz-adv-x="606" 
d="M444 -29l-464 1520h182l465 -1520h-183z" />
    <glyph glyph-name="bracketright" unicode="]" horiz-adv-x="569" 
d="M-4 -377v164h207v1511h-207v164h416v-1839h-416z" />
    <glyph glyph-name="asciicircum" unicode="^" horiz-adv-x="1228" 
d="M936 573l-322 672l-321 -672h-176l418 848h155l422 -848h-176z" />
    <glyph glyph-name="underscore" unicode="_" horiz-adv-x="1024" 
d="M0 -256v102h1024v-102h-1024z" />
    <glyph glyph-name="grave" unicode="`" 
d="M188 1245l-217 295h246l123 -295h-152z" />
    <glyph glyph-name="a" unicode="a" horiz-adv-x="948" 
d="M829 860v-631q0 -31 17 -54t41 -23q25 0 37 6v-144q-58 -26 -109 -26q-80 0 -131 35t-55 110h-4q-88 -162 -275 -162q-136 0 -211.5 78t-75.5 232q0 72 13 126t33 88t56 60t68.5 40.5t85.5 31.5l173 47q69 20 99 47.5t30 93.5q0 80 -34.5 122t-117.5 42q-43 0 -74 -12
t-49 -31t-28.5 -48t-13.5 -56.5t-3 -63.5h-209q0 183 88 272.5t299 89.5q102 0 178 -26t124 -88t48 -156zM621 397v185q-33 -26 -132 -61t-114 -42q-90 -44 -90 -178q0 -73 35.5 -119.5t101.5 -46.5q98 0 148.5 69t50.5 193z" />
    <glyph glyph-name="b" unicode="b" horiz-adv-x="985" 
d="M106 0v1462h222v-489h4q31 74 96 115.5t154 41.5q56 0 100.5 -11.5t91 -47t77.5 -95.5t51 -164.5t20 -246.5q0 -293 -86.5 -443.5t-274.5 -150.5q-56 0 -99.5 14.5t-71 41t-43 51.5t-28.5 57h-4v-135h-209zM315 539q0 -75 5 -132t17.5 -107.5t33 -83t53.5 -51t78 -18.5
q56 0 93.5 27.5t57.5 84t27.5 126t7.5 170.5q0 222 -38.5 310.5t-133.5 88.5q-62 0 -102.5 -26.5t-62 -83.5t-29 -127.5t-7.5 -177.5z" />
    <glyph glyph-name="c" unicode="c" horiz-adv-x="909" 
d="M641 401h209q-11 -211 -97 -320.5t-280 -109.5q-94 0 -165 28t-117 77t-75 123.5t-41 159.5t-12 192t12 192t41 159t75 123t117 77t165 28q68 1 124.5 -13.5t95 -38.5t68 -58.5t46.5 -70t27.5 -76t14 -73t3.5 -65.5h-221q0 43 -7 80.5t-23.5 74.5t-49 57.5t-78.5 19.5
q-47 0 -81 -20.5t-54.5 -55t-32.5 -89.5t-16 -113.5t-4 -137.5t4 -137.5t16 -113.5t32.5 -89.5t54.5 -55t81 -20.5q168 -3 168 266z" />
    <glyph glyph-name="d" unicode="d" horiz-adv-x="985" 
d="M670 0v135h-4q-13 -32 -28.5 -57t-43 -51.5t-71 -41t-99.5 -14.5q-188 0 -274.5 150.5t-86.5 443.5q0 142 20 246.5t51 164.5t77.5 95.5t91 47t100.5 11.5q89 0 154 -41.5t96 -115.5h4v489h222v-1462h-209zM670 539q0 107 -7.5 177.5t-29 127.5t-62 83.5t-102.5 26.5
q-95 0 -133.5 -88.5t-38.5 -310.5q0 -101 7.5 -170.5t27.5 -126t57.5 -84t93.5 -27.5q45 0 78 18.5t53.5 51t33 83t17.5 107.5t5 132z" />
    <glyph glyph-name="e" unicode="e" horiz-adv-x="948" 
d="M872 522h-575v-63q0 -52 3 -92.5t14 -88.5t30 -80t54 -53.5t83 -21.5q45 0 79 20t51.5 47.5t28.5 64t14 63t3 51.5h209q0 -184 -103.5 -291t-283.5 -107q-44 0 -79.5 4.5t-78.5 18.5t-76.5 38t-66 67t-54 101t-35 143.5t-13.5 191.5q0 67 4.5 124.5t16 119.5t30.5 112
t50.5 95.5t73.5 76.5t101 49t131 18q113 0 190 -32.5t120 -99t61 -152.5t18 -207v-117zM297 674h354v59q0 113 -40.5 179.5t-129.5 66.5q-67 0 -110 -42.5t-58.5 -102.5t-15.5 -138v-22z" />
    <glyph glyph-name="f" unicode="f" horiz-adv-x="569" 
d="M174 0v938h-154v164h154v102q0 151 69.5 213t211.5 62q71 0 120 -6v-170h-61q-62 0 -90.5 -25t-28.5 -80v-96h180v-164h-180v-938h-221z" />
    <glyph glyph-name="g" unicode="g" horiz-adv-x="985" 
d="M119 -94h209q0 -53 44 -92t115 -39q86 0 136.5 56t50.5 151v178h-4q-30 -70 -99.5 -111t-150.5 -41q-330 0 -330 555q0 58 3 108t12 110t24 107.5t42 94t62.5 78t88.5 50.5t118 19q92 0 159 -49t83 -114h4v135h209v-1049q0 -209 -98.5 -319.5t-313.5 -110.5
q-93 0 -163 21.5t-107 51.5t-59.5 72t-28.5 73.5t-6 64.5zM311 586q0 -57 1.5 -96t6.5 -91t16.5 -85.5t30 -66t48 -48t69.5 -15.5q42 0 74 16.5t52 47t33.5 66t20 83.5t9 88t2.5 90t-2.5 91t-9 86.5t-19 80t-31.5 63t-48 43.5t-66 15q-58 0 -96.5 -27.5t-57.5 -81t-26 -114
t-7 -145.5z" />
    <glyph glyph-name="h" unicode="h" horiz-adv-x="985" 
d="M106 0v1462h222v-479l6 -4q46 71 116 111t154 40q133 0 204 -69.5t71 -229.5v-831h-222v756q0 107 -35 152.5t-118 45.5q-73 0 -124.5 -56.5t-51.5 -158.5v-739h-222z" />
    <glyph glyph-name="i" unicode="i" 
d="M117 0v1102h221v-1102h-221zM117 1257v222h221v-222h-221z" />
    <glyph glyph-name="j" unicode="j" 
d="M117 1102h221v-1174q0 -167 -70 -236t-221 -69q-47 0 -96 6v170h51q64 0 89.5 32t25.5 118v1153zM117 1479h221v-222h-221v222z" />
    <glyph glyph-name="k" unicode="k" horiz-adv-x="948" 
d="M106 0v1462h222v-821h4l334 461l256 2l-332 -426l375 -678h-242l-270 502l-125 -152v-350h-222z" />
    <glyph glyph-name="l" unicode="l" 
d="M117 0v1462h221v-1462h-221z" />
    <glyph glyph-name="m" unicode="m" horiz-adv-x="1515" 
d="M117 0v1102h209v-129h6q41 73 113 115t151 42q110 0 169 -44.5t87 -122.5q49 83 115.5 125t162.5 42q125 0 197 -70t72 -222v-838h-221v756q0 105 -32.5 151.5t-101.5 46.5q-73 0 -124.5 -56.5t-51.5 -158.5v-739h-221v756q0 106 -32.5 152t-102.5 46q-71 0 -122.5 -56.5
t-51.5 -158.5v-739h-221z" />
    <glyph glyph-name="n" unicode="n" horiz-adv-x="985" 
d="M106 0v1102h209v-129h7q41 74 115.5 115.5t166.5 41.5q133 0 204 -69.5t71 -229.5v-831h-222v756q0 107 -35 152.5t-118 45.5q-73 0 -124.5 -56.5t-51.5 -158.5v-739h-222z" />
    <glyph glyph-name="o" unicode="o" horiz-adv-x="948" 
d="M63 551q0 107 12 192t41 159t75 123t117 77t165 28q95 0 166.5 -28t118 -77t75 -123t40.5 -159t12 -192q0 -580 -412 -580q-410 0 -410 580zM285 551q0 -90 4 -152t16 -115.5t33 -84t54 -47.5t81 -17t82 17t55.5 47.5t33 84t16 115.5t4.5 152q0 100 -7.5 169.5t-27 128.5
t-58.5 88.5t-98 29.5q-47 0 -81 -20.5t-54.5 -55t-32.5 -89.5t-16 -113.5t-4 -137.5z" />
    <glyph glyph-name="p" unicode="p" horiz-adv-x="985" 
d="M106 -360v1462h209v-135h4q75 163 248 163q184 0 269.5 -150.5t85.5 -442.5q0 -133 -21 -236t-54.5 -164t-79.5 -99.5t-90.5 -52.5t-94.5 -14q-88 0 -153.5 42t-96.5 116h-4v-489h-222zM315 563q0 -215 39.5 -315.5t149.5 -100.5q98 0 141 88.5t43 311.5
q0 101 -7.5 170.5t-27.5 125.5t-57.5 83.5t-93.5 27.5t-93.5 -27t-57.5 -81t-28 -121.5t-8 -161.5z" />
    <glyph glyph-name="q" unicode="q" horiz-adv-x="985" 
d="M657 -360v489h-4q-31 -74 -96.5 -116t-155.5 -42q-55 0 -101.5 15.5t-91.5 55.5t-76 102.5t-50 162.5t-19 230q0 293 86.5 443t274.5 150q56 0 99.5 -14.5t71 -41t43 -51t28.5 -56.5h4v135h209v-1462h-222zM670 563q0 94 -8 161.5t-28 121.5t-57.5 81t-93.5 27
t-93.5 -27.5t-57.5 -83.5t-27.5 -125.5t-7.5 -170.5q0 -216 42 -308t130 -92q62 0 102.5 26.5t62 84t29 128t7.5 177.5z" />
    <glyph glyph-name="r" unicode="r" horiz-adv-x="645" 
d="M106 0v1102h222v-172h4q80 200 256 200q25 0 53 -8v-225q-48 12 -92 12q-42 0 -77.5 -11t-69.5 -36.5t-54 -77.5t-20 -125v-659h-222z" />
    <glyph glyph-name="s" unicode="s" horiz-adv-x="872" 
d="M791 780h-209v29q0 170 -146 170q-71 0 -114 -35t-43 -108q0 -64 33 -97.5t122 -64.5l141 -49q125 -42 182.5 -116t57.5 -202q0 -86 -30 -151.5t-84 -105.5t-124.5 -59.5t-156.5 -19.5q-200 0 -281.5 86t-81.5 256v41h197v-35q0 -99 40 -147.5t132 -48.5q89 0 134.5 42.5
t45.5 119.5q0 119 -121 161l-180 64q-126 43 -180.5 115t-54.5 202q0 151 100 227t276 76q81 0 143.5 -18.5t99.5 -47.5t61 -70t32.5 -80.5t8.5 -84.5v-49z" />
    <glyph glyph-name="t" unicode="t" horiz-adv-x="569" 
d="M8 938v164h152v313h221v-313h180v-164h-180v-657q0 -65 21.5 -91t78.5 -26q50 0 80 6v-164q-71 -18 -178 -18q-60 0 -98.5 10t-68.5 38.5t-43 81.5t-13 136v684h-152z" />
    <glyph glyph-name="u" unicode="u" horiz-adv-x="985" 
d="M670 0v129h-6q-41 -74 -116 -116t-167 -42q-65 0 -113 17t-85.5 56.5t-57 111.5t-19.5 176v770h222v-791q0 -89 37.5 -126.5t111.5 -37.5q75 0 127.5 48.5t52.5 136.5v770h222v-1102h-209z" />
    <glyph glyph-name="v" unicode="v" horiz-adv-x="872" 
d="M309 0l-295 1102h238l192 -869h5l174 869h235l-291 -1102h-258z" />
    <glyph glyph-name="w" unicode="w" horiz-adv-x="1402" 
d="M281 0l-250 1102h229l154 -869h4l164 869h249l164 -869h4l152 869h221l-252 -1102h-248l-172 856h-4l-157 -856h-258z" />
    <glyph glyph-name="x" unicode="x" horiz-adv-x="872" 
d="M6 0l301 571l-284 531h241l172 -365l180 365h238l-287 -531l299 -571h-239l-193 408l-192 -408h-236z" />
    <glyph glyph-name="y" unicode="y" horiz-adv-x="872" 
d="M16 1102h238l190 -828h5l176 828h231l-303 -1143q-22 -77 -42 -130t-45.5 -92t-51.5 -61t-65 -34.5t-79.5 -16t-101.5 -2.5q-30 0 -88 8v176q50 -8 72 -8q61 0 96 18t53 68l29 90z" />
    <glyph glyph-name="z" unicode="z" horiz-adv-x="833" 
d="M51 0v172l481 743h-452v187h702v-182l-463 -734h463v-186h-731z" />
    <glyph glyph-name="braceleft" unicode="{" horiz-adv-x="569" 
d="M14 475v135q67 3 116.5 64.5t49.5 144.5v375q0 124 67.5 196t160.5 72h147v-127h-68q-56 0 -77 -35.5t-21 -105.5v-375q0 -55 -15 -101.5t-36.5 -75.5t-48.5 -51t-48.5 -32t-39.5 -14v-4q24 -6 52 -22t60.5 -46.5t54 -84.5t21.5 -122v-375q0 -70 21 -105.5t77 -35.5h68
v-127h-147q-93 0 -160.5 72t-67.5 196v375q0 83 -49.5 144.5t-116.5 64.5z" />
    <glyph glyph-name="bar" unicode="|" 
d="M139 -29v1520h176v-1520h-176z" />
    <glyph glyph-name="braceright" unicode="}" horiz-adv-x="569" 
d="M555 610v-135q-67 -3 -116.5 -64.5t-49.5 -144.5v-375q0 -124 -67 -196t-160 -72h-148v127h68q56 0 77 35.5t21 105.5v375q0 55 15 101.5t36.5 75.5t49 51t49 32.5t39.5 14.5v4q-18 4 -39.5 14t-49 32t-49 51t-36.5 75.5t-15 101.5v375q0 70 -21 105.5t-77 35.5h-68v127
h148q93 0 160 -72t67 -196v-375q0 -83 49.5 -144.5t116.5 -64.5z" />
    <glyph glyph-name="asciitilde" unicode="~" horiz-adv-x="1228" 
d="M215 346l-74 156q43 86 111.5 132t144.5 46q82 0 238 -76q54 -26 78.5 -37t61 -23t59.5 -12q92 0 180 158l73 -155q-48 -83 -115.5 -131t-140.5 -48q-81 0 -237 76q-54 26 -78.5 37t-61 23t-59.5 12q-92 0 -180 -158z" />
    <glyph glyph-name="uni00A0" unicode="&#xa0;" horiz-adv-x="491" 
 />
    <glyph glyph-name="exclamdown" unicode="&#xa1;" horiz-adv-x="569" 
d="M367 709l34 -607v-462h-233v462l35 607h164zM401 1102v-234h-233v234h233z" />
    <glyph glyph-name="cent" unicode="&#xa2;" horiz-adv-x="983" 
d="M459 135v832q-81 -24 -110.5 -129t-29.5 -287q0 -181 29 -284t111 -132zM459 -209v180q-83 7 -145.5 38.5t-103 81.5t-66 122.5t-36 154.5t-10.5 183q0 128 17.5 225t57.5 176t111.5 124.5t174.5 53.5v154h90v-154q84 -5 147 -36t98 -72.5t56.5 -96.5t28 -99.5t6.5 -90.5
h-221q0 38 -5 72.5t-17 69t-36 59t-57 31.5v-832q127 36 127 266h209q-5 -97 -24.5 -170t-57.5 -131t-101.5 -90.5t-152.5 -38.5v-180h-90z" />
    <glyph glyph-name="sterling" unicode="&#xa3;" horiz-adv-x="983" 
d="M37 645v139h141l-35 72q-67 125 -67 227q0 55 16 107.5t50.5 99.5t83.5 82.5t120 56.5t154 21q116 0 203 -33t135.5 -90t72 -125.5t23.5 -148.5v-25h-221v23q0 29 -4.5 58t-18.5 62t-35.5 57.5t-59 41t-85.5 16.5q-92 0 -146.5 -48.5t-54.5 -127.5q0 -105 66 -231l47 -95
h340v-139h-287q21 -61 21 -121q0 -57 -19 -108t-56.5 -96t-74 -77t-90.5 -73l4 -8q76 47 150 47q42 0 131 -31t125 -31q60 0 153 54l62 32l77 -161l-40 -25q-131 -79 -261 -76q-70 1 -184.5 40.5t-171.5 39.5q-79 0 -195 -63l-81 157l36 27q38 27 71.5 58.5t67.5 74.5
t54 96.5t20 108.5q0 57 -36 135h-201z" />
    <glyph glyph-name="currency" unicode="&#xa4;" horiz-adv-x="983" 
d="M12 322l105 104q-97 132 -97 285q0 159 97 284l-105 105l92 92l105 -105q130 95 283 95q152 0 282 -95l105 105l92 -92l-105 -107q97 -128 97 -282q0 -155 -97 -283l105 -106l-92 -93l-107 107q-123 -96 -280 -96q-156 0 -283 96l-105 -107zM492 391q129 0 218 92.5
t89 227.5t-89 227t-218 92t-218.5 -92t-89.5 -227t89.5 -227.5t218.5 -92.5z" />
    <glyph glyph-name="yen" unicode="&#xa5;" horiz-adv-x="983" 
d="M373 0v332h-289v139h289v96l-21 47h-268v140h207l-287 667h254l234 -581l243 581h244l-301 -667h205v-140h-267l-22 -47v-96h289v-139h-289v-332h-221z" />
    <glyph glyph-name="brokenbar" unicode="&#xa6;" 
d="M139 -29v568h176v-568h-176zM139 924v567h176v-567h-176z" />
    <glyph glyph-name="section" unicode="&#xa7;" horiz-adv-x="985" 
d="M618 709l-243 141l-27 -23q-102 -73 -102 -155q0 -51 34 -84.5t121 -83.5l234 -137l33 24q71 61 71 146q0 33 -10.5 60.5t-31 48.5t-37.5 34t-42 29zM868 1169h-221q0 76 -41.5 117t-118.5 41q-69 0 -113 -37.5t-44 -95.5q0 -49 36 -88t119 -86l277 -154
q96 -54 135 -129.5t39 -175.5q0 -86 -44.5 -161.5t-119.5 -123.5q117 -96 117 -237q0 -172 -108 -265t-281 -93q-195 0 -295.5 102t-100.5 272h222q0 -91 42 -144.5t132 -53.5q67 0 111 41t44 112q0 69 -39 111t-112 82l-234 127q-221 122 -221 315q0 95 53 169t138 122
q-63 35 -97 96t-34 139q0 153 108.5 236.5t276.5 83.5q86 0 153.5 -20.5t108 -52.5t66.5 -76t36 -86t10 -87z" />
    <glyph glyph-name="dieresis" unicode="&#xa8;" 
d="M299 1286v221h197v-221h-197zM-41 1286v221h197v-221h-197z" />
    <glyph glyph-name="copyright" unicode="&#xa9;" horiz-adv-x="1638" 
d="M1044 598h170q-26 -151 -130.5 -237.5t-256.5 -86.5q-187 0 -300 124.5t-113 334.5t116 333.5t312 123.5q144 0 244.5 -82.5t121.5 -230.5h-164q-16 74 -70.5 119.5t-135.5 41.5q-116 0 -182 -86.5t-66 -218.5q0 -135 67.5 -221t188.5 -86q78 0 133 47t65 125zM819 135
q156 0 288 79.5t209 217t77 299.5t-77 299.5t-209 217t-288 79.5q-117 0 -223 -47t-182.5 -127t-122 -190t-45.5 -232t45.5 -232t122 -190t182.5 -127t223 -47zM59 731q0 155 60 295.5t162 242.5t242.5 162t295.5 60t295.5 -60t242.5 -162t162 -242.5t60 -295.5t-60 -295.5
t-162 -242.5t-242.5 -162t-295.5 -60t-295.5 60t-242.5 162t-162 242.5t-60 295.5z" />
    <glyph glyph-name="ordfeminine" unicode="&#xaa;" horiz-adv-x="647" 
d="M16 936q0 56 11.5 92.5t39.5 59.5t57 35.5t81 25.5l106 27q49 12 70.5 29t21.5 57q0 73 -94 73q-34 0 -57 -9t-33.5 -25.5t-14 -32t-3.5 -35.5h-152q0 110 62 163.5t217 53.5q111 0 175 -39t64 -123v-362q0 -20 9 -33.5t26 -13.5q13 0 29 4v-117q-63 -14 -84 -14
q-54 0 -89 23.5t-38 72.5h-6q-33 -50 -79 -73t-118 -23q-97 0 -149 47t-52 137zM403 1004v116q-20 -15 -82.5 -35t-76.5 -28q-32 -15 -41.5 -41.5t-9.5 -63.5q0 -30 23.5 -51.5t62.5 -21.5q56 0 90 35t34 90z" />
    <glyph glyph-name="guillemotleft" unicode="&#xab;" horiz-adv-x="833" 
d="M436 475v234l295 276v-225l-180 -168l180 -168v-225zM102 475v234l295 276v-225l-180 -168l180 -168v-225z" />
    <glyph glyph-name="logicalnot" unicode="&#xac;" horiz-adv-x="1228" 
d="M956 217v426h-860v176h1037v-602h-177z" />
    <glyph glyph-name="uni00AD" unicode="&#xad;" horiz-adv-x="720" 
d="M92 487v209h537v-209h-537z" />
    <glyph glyph-name="registered" unicode="&#xae;" horiz-adv-x="1638" 
d="M993 297l-221 367h-129v-367h-151v868h337q164 0 245 -60t81 -190q0 -203 -223 -245l237 -373h-176zM643 791h156q38 0 64 2t55 9.5t46 21t28.5 38.5t11.5 60q0 116 -193 116h-168v-247zM819 135q156 0 288 79.5t209 217t77 299.5t-77 299.5t-209 217t-288 79.5
q-117 0 -223 -47t-182.5 -127t-122 -190t-45.5 -232t45.5 -232t122 -190t182.5 -127t223 -47zM59 731q0 155 60 295.5t162 242.5t242.5 162t295.5 60t295.5 -60t242.5 -162t162 -242.5t60 -295.5t-60 -295.5t-162 -242.5t-242.5 -162t-295.5 -60t-295.5 60t-242.5 162
t-162 242.5t-60 295.5z" />
    <glyph glyph-name="macron" unicode="&#xaf;" 
d="M-61 1462h577v-127h-577v127z" />
    <glyph glyph-name="degree" unicode="&#xb0;" horiz-adv-x="819" 
d="M104 1145q0 126 90 215.5t216 89.5t215.5 -89.5t89.5 -215.5t-89.5 -215.5t-215.5 -89.5t-216 89.5t-90 215.5zM244 1145q0 -69 48.5 -117.5t117.5 -48.5t117 48.5t48 117.5t-48 117.5t-117 48.5t-117.5 -48.5t-48.5 -117.5z" />
    <glyph glyph-name="plusminus" unicode="&#xb1;" horiz-adv-x="1228" 
d="M526 727v309h176v-309h431v-176h-431v-309h-176v309h-430v176h430zM96 0v176h1037v-176h-1037z" />
    <glyph glyph-name="twosuperior" unicode="&#xb2;" horiz-adv-x="641" 
d="M598 713v-140h-565q0 83 22 150t57 111t77 80.5t84.5 67t77.5 61t57 71t22 90.5q0 56 -26.5 87.5t-77.5 31.5q-34 0 -58 -15t-35.5 -40t-16.5 -49.5t-5 -51.5h-176q0 283 293 283q278 0 278 -233q0 -57 -17 -104.5t-46 -82t-64 -64t-74 -57t-74 -55t-65.5 -64
t-46.5 -77.5h379z" />
    <glyph glyph-name="threesuperior" unicode="&#xb3;" horiz-adv-x="641" 
d="M238 965v127h55q65 0 97 35.5t32 84.5q0 42 -26.5 76.5t-76.5 34.5q-56 0 -82 -39t-26 -86h-176q0 121 80 186.5t217 65.5q50 0 95.5 -13t84.5 -38.5t62.5 -69.5t23.5 -100q0 -68 -48 -125.5t-116 -67.5v-4q81 -5 134 -59.5t53 -143.5q0 -126 -85 -198t-219 -72
q-151 0 -224 62.5t-73 197.5h177q0 -29 9.5 -57t38.5 -52t72 -24q64 0 95.5 41.5t31.5 103.5q0 134 -145 134h-61z" />
    <glyph glyph-name="acute" unicode="&#xb4;" 
d="M115 1245l123 295h245l-217 -295h-151z" />
    <glyph glyph-name="mu" unicode="&#xb5;" horiz-adv-x="985" 
d="M106 -360v1462h222v-756q0 -108 35 -153.5t118 -45.5q73 0 124.5 56.5t51.5 158.5v740h222v-1102h-209v129h-6q-41 -73 -104.5 -115.5t-129.5 -42.5q-65 0 -102 37v-368h-222z" />
    <glyph glyph-name="paragraph" unicode="&#xb6;" horiz-adv-x="1228" 
d="M907 -291v1614h-227v-1614h-186v996q-160 0 -272.5 106.5t-112.5 265.5q0 198 126.5 291.5t350.5 93.5h508v-1753h-187z" />
    <glyph glyph-name="periodcentered" unicode="&#xb7;" horiz-adv-x="491" 
d="M98 631q0 61 43 104t105 43t104.5 -43t42.5 -104q0 -62 -43 -105t-104 -43q-62 0 -105 43.5t-43 104.5z" />
    <glyph glyph-name="cedilla" unicode="&#xb8;" 
d="M197 0h102l-84 -117q55 11 82 11q68 0 114 -45t46 -107q0 -82 -68.5 -133t-171.5 -51q-114 0 -207 34l33 82q71 -26 135 -26q28 0 52 6t43.5 24.5t19.5 47.5q0 34 -27.5 55.5t-66.5 21.5q-25 0 -78 -16l-37 35z" />
    <glyph glyph-name="onesuperior" unicode="&#xb9;" horiz-adv-x="641" 
d="M266 573v625h-184v115h14q191 0 223 121v16h123v-877h-176z" />
    <glyph glyph-name="ordmasculine" unicode="&#xba;" horiz-adv-x="647" 
d="M324 752q-162 0 -228.5 89.5t-66.5 256.5q0 171 66.5 261.5t228.5 90.5t228 -90.5t66 -261.5q0 -167 -66 -256.5t-228 -89.5zM324 879q36 0 60.5 17t36.5 49.5t16.5 68t4.5 84.5q0 51 -4.5 88t-16.5 70t-36.5 50t-60.5 17t-60.5 -17t-36.5 -50t-17 -70t-5 -88
q0 -48 5 -84t17 -68.5t36.5 -49.5t60.5 -17z" />
    <glyph glyph-name="guillemotright" unicode="&#xbb;" horiz-adv-x="833" 
d="M397 709v-234l-295 -276v225l181 168l-181 168v225zM731 709v-234l-295 -276v225l180 168l-180 168v225z" />
    <glyph glyph-name="onequarter" unicode="&#xbc;" horiz-adv-x="1476" 
d="M1116 0v193h-336v124l324 560h176v-570h102v-114h-102v-193h-164zM1116 307v373h-4l-211 -373h215zM152 -63l862 1548h151l-862 -1548h-151zM205 573v625h-185v115h15q191 0 223 121v16h123v-877h-176z" />
    <glyph glyph-name="onehalf" unicode="&#xbd;" horiz-adv-x="1476" 
d="M152 -63l862 1548h151l-862 -1548h-151zM205 573v625h-185v115h15q191 0 223 121v16h123v-877h-176zM1407 0h-565q0 83 22 150t57 111t77 80.5t84.5 67t77.5 61t57 71t22 90.5q0 56 -26.5 87.5t-77.5 31.5q-34 0 -58 -15t-35.5 -40t-16.5 -49.5t-5 -51.5h-176
q0 283 293 283q278 0 278 -234q0 -57 -17 -104.5t-46 -82t-64 -64t-74 -57t-74 -55t-65.5 -64t-46.5 -77.5h379v-139z" />
    <glyph glyph-name="threequarters" unicode="&#xbe;" horiz-adv-x="1476" 
d="M1116 0v193h-336v124l324 560h176v-570h102v-114h-102v-193h-164zM1116 307v373h-4l-211 -373h215zM221 -63l862 1548h152l-862 -1548h-152zM184 965v127h56q65 0 97 35.5t32 84.5q0 42 -26.5 76.5t-76.5 34.5q-56 0 -82 -39t-26 -86h-176q0 121 80 186.5t217 65.5
q50 0 95.5 -13t84.5 -38.5t62.5 -69.5t23.5 -100q0 -68 -48 -125.5t-116 -67.5v-4q81 -5 133.5 -59t52.5 -144q0 -126 -84.5 -198t-218.5 -72q-151 0 -224 62.5t-73 197.5h176q0 -20 6 -41.5t19 -43t38 -35t58 -13.5q64 0 95.5 41.5t31.5 103.5q0 134 -145 134h-62z" />
    <glyph glyph-name="questiondown" unicode="&#xbf;" horiz-adv-x="948" 
d="M602 709v-123q0 -60 -16.5 -109.5t-42.5 -84t-57.5 -66t-63.5 -63t-58 -66t-42.5 -84t-16.5 -109.5q0 -46 8.5 -83t26.5 -68t51.5 -48.5t79.5 -17.5q99 0 141.5 75.5t42.5 213.5h222q0 -100 -22 -182t-68.5 -146.5t-126.5 -100.5t-187 -36q-191 0 -296 102.5t-105 290.5
q0 71 17.5 132.5t46 106t62.5 84t68.5 73.5t63 67.5t46 73t17.5 82.5v86h209zM616 1102v-234h-233v234h233z" />
    <glyph glyph-name="Agrave" unicode="&#xc0;" horiz-adv-x="1062" 
d="M362 545h347l-168 721h-4zM-18 0l415 1462h299l385 -1462h-243l-90 358h-429l-94 -358h-243zM508 1544l-217 295h246l122 -295h-151z" />
    <glyph glyph-name="Aacute" unicode="&#xc1;" horiz-adv-x="1062" 
d="M362 545h347l-168 721h-4zM-18 0l415 1462h299l385 -1462h-243l-90 358h-429l-94 -358h-243zM434 1544l123 295h246l-217 -295h-152z" />
    <glyph glyph-name="Acircumflex" unicode="&#xc2;" horiz-adv-x="1062" 
d="M362 545h347l-168 721h-4zM-18 0l415 1462h299l385 -1462h-243l-90 358h-429l-94 -358h-243zM252 1544l186 295h221l183 -295h-187l-110 180l-117 -180h-176z" />
    <glyph glyph-name="Atilde" unicode="&#xc3;" horiz-adv-x="1062" 
d="M362 545h347l-168 721h-4zM-18 0l415 1462h299l385 -1462h-243l-90 358h-429l-94 -358h-243zM729 1810h127q0 -49 -18.5 -102.5t-60.5 -96t-97 -42.5q-50 0 -134 35.5t-112 35.5q-32 0 -50.5 -24t-18.5 -57h-127q0 36 11.5 76t34 79t64.5 64.5t96 25.5q12 0 27.5 -4
t23.5 -7t31 -12.5t27 -11.5q78 -36 115 -36q32 0 46.5 22.5t14.5 54.5z" />
    <glyph glyph-name="Adieresis" unicode="&#xc4;" horiz-adv-x="1062" 
d="M362 545h347l-168 721h-4zM-18 0l415 1462h299l385 -1462h-243l-90 358h-429l-94 -358h-243zM618 1585v221h197v-221h-197zM279 1585v221h196v-221h-196z" />
    <glyph glyph-name="Aring" unicode="&#xc5;" horiz-adv-x="1062" 
d="M362 545h347l-168 721h-4zM-18 0l415 1462h299l385 -1462h-243l-90 358h-429l-94 -358h-243zM432 1731q0 -47 34 -81t81 -34t81 34t34 81t-34 80.5t-81 33.5t-81 -33.5t-34 -80.5zM330 1731q0 91 63 154t154 63t154 -63t63 -154t-63 -154.5t-154 -63.5t-154 63.5
t-63 154.5z" />
    <glyph glyph-name="AE" unicode="&#xc6;" horiz-adv-x="1517" 
d="M410 545h280v731h-18zM-25 0l560 1462h895v-196h-519v-406h490v-196h-490v-467h537v-197h-758v358h-342l-129 -358h-244z" />
    <glyph glyph-name="Ccedilla" unicode="&#xc7;" horiz-adv-x="1062" 
d="M414 -178l96 149q-120 11 -202 61t-131 146.5t-70 229.5t-21 323q0 202 23.5 340t79.5 234.5t149.5 141t232.5 44.5q86 0 155 -18t114.5 -46t78.5 -69.5t50.5 -80.5t27.5 -88t12.5 -83t2.5 -74v-26h-234v24q0 56 -9.5 103.5t-31.5 91t-65 68t-103 22.5q-54 0 -92.5 -15
t-69.5 -52.5t-49.5 -103.5t-28.5 -166t-10 -241q0 -233 27.5 -363t80 -178.5t142.5 -48.5q217 0 217 353v24h234v-30q0 -80 -12.5 -150.5t-42.5 -137.5t-76.5 -116.5t-118 -81.5t-162.5 -37l-63 -88q55 11 82 11q68 0 113.5 -44.5t45.5 -107.5q0 -82 -68 -133t-171 -51
q-114 0 -207 34l33 82q71 -26 135 -26q28 0 52 6t43.5 24.5t19.5 47.5q0 34 -27.5 55.5t-67.5 21.5q-24 0 -77 -16z" />
    <glyph glyph-name="Egrave" unicode="&#xc8;" horiz-adv-x="985" 
d="M121 0v1462h790v-196h-557v-406h525v-196h-525v-467h574v-197h-807zM479 1544l-217 295h246l123 -295h-152z" />
    <glyph glyph-name="Eacute" unicode="&#xc9;" horiz-adv-x="985" 
d="M121 0v1462h790v-196h-557v-406h525v-196h-525v-467h574v-197h-807zM406 1544l122 295h246l-217 -295h-151z" />
    <glyph glyph-name="Ecircumflex" unicode="&#xca;" horiz-adv-x="985" 
d="M121 0v1462h790v-196h-557v-406h525v-196h-525v-467h574v-197h-807zM223 1544l187 295h221l182 -295h-186l-111 180l-117 -180h-176z" />
    <glyph glyph-name="Edieresis" unicode="&#xcb;" horiz-adv-x="985" 
d="M121 0v1462h790v-196h-557v-406h525v-196h-525v-467h574v-197h-807zM590 1585v221h196v-221h-196zM250 1585v221h196v-221h-196z" />
    <glyph glyph-name="Igrave" unicode="&#xcc;" 
d="M111 0v1462h233v-1462h-233zM188 1544l-217 295h246l123 -295h-152z" />
    <glyph glyph-name="Iacute" unicode="&#xcd;" 
d="M111 0v1462h233v-1462h-233zM115 1544l123 295h245l-217 -295h-151z" />
    <glyph glyph-name="Icircumflex" unicode="&#xce;" 
d="M111 0v1462h233v-1462h-233zM-68 1544l187 295h221l182 -295h-186l-111 180l-116 -180h-177z" />
    <glyph glyph-name="Idieresis" unicode="&#xcf;" 
d="M111 0v1462h233v-1462h-233zM299 1585v221h197v-221h-197zM-41 1585v221h197v-221h-197z" />
    <glyph glyph-name="Eth" unicode="&#xd0;" horiz-adv-x="1138" 
d="M121 0v682h-121v164h121v616h416q76 0 138.5 -11t111.5 -31t87.5 -52t66.5 -68.5t48 -86.5t32.5 -100t19.5 -115.5t9.5 -127t2.5 -139.5t-2.5 -139.5t-9.5 -127t-19.5 -115.5t-32.5 -100t-48 -86.5t-66.5 -68.5t-87.5 -52t-111.5 -31t-138.5 -11h-416zM354 176h193
q100 0 157.5 49.5t86 170.5t28.5 335q0 209 -26 328.5t-84.5 173t-161.5 53.5h-193v-440h244v-164h-244v-506z" />
    <glyph glyph-name="Ntilde" unicode="&#xd1;" horiz-adv-x="1175" 
d="M121 0v1462h285l423 -1089h5v1089h221v-1462h-285l-424 1118h-4v-1118h-221zM770 1810h127q0 -49 -18.5 -102.5t-60.5 -96t-97 -42.5q-50 0 -134 35.5t-112 35.5q-32 0 -50.5 -24t-18.5 -57h-127q0 36 11.5 76t34 79t64.5 64.5t96 25.5q12 0 27.5 -4t23.5 -7t31 -12.5
t27 -11.5q78 -36 115 -36q32 0 46.5 22.5t14.5 54.5z" />
    <glyph glyph-name="Ograve" unicode="&#xd2;" horiz-adv-x="1138" 
d="M569 -29q-251 0 -367 183.5t-116 576.5t116 576.5t367 183.5t367.5 -183.5t116.5 -576.5t-116.5 -576.5t-367.5 -183.5zM569 147q45 0 79.5 12.5t68 50.5t55 101.5t34.5 171t13 254.5q0 144 -13 249t-34.5 167.5t-55 99.5t-68 49.5t-79.5 12.5t-79.5 -12.5t-68 -49.5
t-55 -99.5t-34.5 -167.5t-13 -249q0 -147 13 -254.5t34.5 -171t55 -101.5t68 -50.5t79.5 -12.5zM530 1544l-217 295h246l123 -295h-152z" />
    <glyph glyph-name="Oacute" unicode="&#xd3;" horiz-adv-x="1138" 
d="M569 -29q-251 0 -367 183.5t-116 576.5t116 576.5t367 183.5t367.5 -183.5t116.5 -576.5t-116.5 -576.5t-367.5 -183.5zM569 147q45 0 79.5 12.5t68 50.5t55 101.5t34.5 171t13 254.5q0 144 -13 249t-34.5 167.5t-55 99.5t-68 49.5t-79.5 12.5t-79.5 -12.5t-68 -49.5
t-55 -99.5t-34.5 -167.5t-13 -249q0 -147 13 -254.5t34.5 -171t55 -101.5t68 -50.5t79.5 -12.5zM457 1544l123 295h245l-217 -295h-151z" />
    <glyph glyph-name="Ocircumflex" unicode="&#xd4;" horiz-adv-x="1138" 
d="M569 -29q-251 0 -367 183.5t-116 576.5t116 576.5t367 183.5t367.5 -183.5t116.5 -576.5t-116.5 -576.5t-367.5 -183.5zM569 147q45 0 79.5 12.5t68 50.5t55 101.5t34.5 171t13 254.5q0 144 -13 249t-34.5 167.5t-55 99.5t-68 49.5t-79.5 12.5t-79.5 -12.5t-68 -49.5
t-55 -99.5t-34.5 -167.5t-13 -249q0 -147 13 -254.5t34.5 -171t55 -101.5t68 -50.5t79.5 -12.5zM274 1544l187 295h221l182 -295h-186l-111 180l-116 -180h-177z" />
    <glyph glyph-name="Otilde" unicode="&#xd5;" horiz-adv-x="1138" 
d="M569 -29q-251 0 -367 183.5t-116 576.5t116 576.5t367 183.5t367.5 -183.5t116.5 -576.5t-116.5 -576.5t-367.5 -183.5zM569 147q45 0 79.5 12.5t68 50.5t55 101.5t34.5 171t13 254.5q0 144 -13 249t-34.5 167.5t-55 99.5t-68 49.5t-79.5 12.5t-79.5 -12.5t-68 -49.5
t-55 -99.5t-34.5 -167.5t-13 -249q0 -147 13 -254.5t34.5 -171t55 -101.5t68 -50.5t79.5 -12.5zM752 1810h127q0 -49 -19 -102.5t-61 -96t-97 -42.5q-50 0 -133.5 35.5t-111.5 35.5q-32 0 -51 -24t-19 -57h-127q0 36 11.5 76t34.5 79t65 64.5t96 25.5q12 0 27 -4t23.5 -7
t30 -12.5t27.5 -11.5q78 -36 115 -36q32 0 47 22.5t15 54.5z" />
    <glyph glyph-name="Odieresis" unicode="&#xd6;" horiz-adv-x="1138" 
d="M569 -29q-251 0 -367 183.5t-116 576.5t116 576.5t367 183.5t367.5 -183.5t116.5 -576.5t-116.5 -576.5t-367.5 -183.5zM569 147q45 0 79.5 12.5t68 50.5t55 101.5t34.5 171t13 254.5q0 144 -13 249t-34.5 167.5t-55 99.5t-68 49.5t-79.5 12.5t-79.5 -12.5t-68 -49.5
t-55 -99.5t-34.5 -167.5t-13 -249q0 -147 13 -254.5t34.5 -171t55 -101.5t68 -50.5t79.5 -12.5zM641 1585v221h197v-221h-197zM301 1585v221h197v-221h-197z" />
    <glyph glyph-name="multiply" unicode="&#xd7;" horiz-adv-x="1228" 
d="M500 518l-357 356l115 115l354 -356l359 356l114 -115l-358 -356l358 -356l-114 -115l-359 359l-354 -359l-115 115z" />
    <glyph glyph-name="Oslash" unicode="&#xd8;" horiz-adv-x="1138" 
d="M784 1096l-368 -877q52 -72 153 -72q45 0 79.5 12.5t68 50.5t55 101.5t34.5 171t13 254.5q0 221 -31 359h-4zM356 367l369 876q-54 72 -156 72q-45 0 -79.5 -12.5t-68 -49.5t-55 -99.5t-34.5 -167.5t-13 -249q0 -228 33 -370h4zM279 -106l-105 49l68 159
q-156 178 -156 629q0 393 116 576.5t367 183.5q140 0 236 -57l55 133l105 -49l-68 -158q156 -178 156 -629q0 -393 -116.5 -576.5t-367.5 -183.5q-139 0 -233 58z" />
    <glyph glyph-name="Ugrave" unicode="&#xd9;" horiz-adv-x="1099" 
d="M102 1462h234v-1048q0 -267 215 -267q213 0 213 267v1048h233v-1030q0 -244 -113.5 -352.5t-332.5 -108.5q-220 0 -334.5 108.5t-114.5 352.5v1030zM512 1544l-217 295h246l123 -295h-152z" />
    <glyph glyph-name="Uacute" unicode="&#xda;" horiz-adv-x="1099" 
d="M102 1462h234v-1048q0 -267 215 -267q213 0 213 267v1048h233v-1030q0 -244 -113.5 -352.5t-332.5 -108.5q-220 0 -334.5 108.5t-114.5 352.5v1030zM438 1544l123 295h246l-217 -295h-152z" />
    <glyph glyph-name="Ucircumflex" unicode="&#xdb;" horiz-adv-x="1099" 
d="M102 1462h234v-1048q0 -267 215 -267q213 0 213 267v1048h233v-1030q0 -244 -113.5 -352.5t-332.5 -108.5q-220 0 -334.5 108.5t-114.5 352.5v1030zM256 1544l186 295h222l182 -295h-187l-110 180l-117 -180h-176z" />
    <glyph glyph-name="Udieresis" unicode="&#xdc;" horiz-adv-x="1099" 
d="M102 1462h234v-1048q0 -267 215 -267q213 0 213 267v1048h233v-1030q0 -244 -113.5 -352.5t-332.5 -108.5q-220 0 -334.5 108.5t-114.5 352.5v1030zM623 1585v221h196v-221h-196zM283 1585v221h196v-221h-196z" />
    <glyph glyph-name="Yacute" unicode="&#xdd;" horiz-adv-x="985" 
d="M369 0v571l-377 891h260l246 -631l252 631h243l-391 -891v-571h-233zM381 1544l123 295h246l-218 -295h-151z" />
    <glyph glyph-name="Thorn" unicode="&#xde;" horiz-adv-x="1024" 
d="M354 1008v-506h166q103 0 168.5 61t65.5 191q0 125 -58 189.5t-192 64.5h-150zM121 0v1462h233v-278h230q203 0 303 -114.5t100 -311.5q0 -199 -112.5 -315.5t-315.5 -116.5h-205v-326h-233z" />
    <glyph glyph-name="germandbls" unicode="&#xdf;" horiz-adv-x="985" 
d="M428 -12v176h55q103 0 154 74t51 213q0 292 -203 292h-53v164h39q23 0 49 9.5t53.5 30.5t45.5 63t18 98q0 207 -164 207q-85 0 -123.5 -52.5t-38.5 -154.5v-1108h-221v1092q0 387 385 387q59 0 111.5 -9.5t103.5 -33t87 -60.5t58.5 -97t22.5 -136q0 -251 -205 -303v-4
q76 -7 130.5 -42.5t83.5 -91t42 -116.5t13 -131q0 -103 -23 -187t-69 -147.5t-122 -98t-176 -34.5h-104z" />
    <glyph glyph-name="agrave" unicode="&#xe0;" horiz-adv-x="948" 
d="M829 860v-631q0 -31 17 -54t41 -23q25 0 37 6v-144q-58 -26 -109 -26q-80 0 -131 35t-55 110h-4q-88 -162 -275 -162q-136 0 -211.5 78t-75.5 232q0 72 13 126t33 88t56 60t68.5 40.5t85.5 31.5l173 47q69 20 99 47.5t30 93.5q0 80 -34.5 122t-117.5 42q-43 0 -74 -12
t-49 -31t-28.5 -48t-13.5 -56.5t-3 -63.5h-209q0 183 88 272.5t299 89.5q102 0 178 -26t124 -88t48 -156zM621 397v185q-33 -26 -132 -61t-114 -42q-90 -44 -90 -178q0 -73 35.5 -119.5t101.5 -46.5q98 0 148.5 69t50.5 193zM436 1245l-217 295h246l123 -295h-152z" />
    <glyph glyph-name="aacute" unicode="&#xe1;" horiz-adv-x="948" 
d="M829 860v-631q0 -31 17 -54t41 -23q25 0 37 6v-144q-58 -26 -109 -26q-80 0 -131 35t-55 110h-4q-88 -162 -275 -162q-136 0 -211.5 78t-75.5 232q0 72 13 126t33 88t56 60t68.5 40.5t85.5 31.5l173 47q69 20 99 47.5t30 93.5q0 80 -34.5 122t-117.5 42q-43 0 -74 -12
t-49 -31t-28.5 -48t-13.5 -56.5t-3 -63.5h-209q0 183 88 272.5t299 89.5q102 0 178 -26t124 -88t48 -156zM621 397v185q-33 -26 -132 -61t-114 -42q-90 -44 -90 -178q0 -73 35.5 -119.5t101.5 -46.5q98 0 148.5 69t50.5 193zM362 1245l123 295h246l-217 -295h-152z" />
    <glyph glyph-name="acircumflex" unicode="&#xe2;" horiz-adv-x="948" 
d="M829 860v-631q0 -31 17 -54t41 -23q25 0 37 6v-144q-58 -26 -109 -26q-80 0 -131 35t-55 110h-4q-88 -162 -275 -162q-136 0 -211.5 78t-75.5 232q0 72 13 126t33 88t56 60t68.5 40.5t85.5 31.5l173 47q69 20 99 47.5t30 93.5q0 80 -34.5 122t-117.5 42q-43 0 -74 -12
t-49 -31t-28.5 -48t-13.5 -56.5t-3 -63.5h-209q0 183 88 272.5t299 89.5q102 0 178 -26t124 -88t48 -156zM621 397v185q-33 -26 -132 -61t-114 -42q-90 -44 -90 -178q0 -73 35.5 -119.5t101.5 -46.5q98 0 148.5 69t50.5 193zM180 1245l187 295h221l182 -295h-186l-111 180
l-117 -180h-176z" />
    <glyph glyph-name="atilde" unicode="&#xe3;" horiz-adv-x="948" 
d="M829 860v-631q0 -31 17 -54t41 -23q25 0 37 6v-144q-58 -26 -109 -26q-80 0 -131 35t-55 110h-4q-88 -162 -275 -162q-136 0 -211.5 78t-75.5 232q0 72 13 126t33 88t56 60t68.5 40.5t85.5 31.5l173 47q69 20 99 47.5t30 93.5q0 80 -34.5 122t-117.5 42q-43 0 -74 -12
t-49 -31t-28.5 -48t-13.5 -56.5t-3 -63.5h-209q0 183 88 272.5t299 89.5q102 0 178 -26t124 -88t48 -156zM621 397v185q-33 -26 -132 -61t-114 -42q-90 -44 -90 -178q0 -73 35.5 -119.5t101.5 -46.5q98 0 148.5 69t50.5 193zM657 1511h127q0 -49 -18.5 -102.5t-60.5 -96
t-97 -42.5q-50 0 -134 35.5t-112 35.5q-32 0 -50.5 -24t-18.5 -57h-127q0 36 11.5 76t34.5 79t65 64.5t96 25.5q12 0 27 -4t23.5 -7t30 -12.5t27.5 -11.5q78 -36 115 -36q32 0 46.5 22.5t14.5 54.5z" />
    <glyph glyph-name="adieresis" unicode="&#xe4;" horiz-adv-x="948" 
d="M829 860v-631q0 -31 17 -54t41 -23q25 0 37 6v-144q-58 -26 -109 -26q-80 0 -131 35t-55 110h-4q-88 -162 -275 -162q-136 0 -211.5 78t-75.5 232q0 72 13 126t33 88t56 60t68.5 40.5t85.5 31.5l173 47q69 20 99 47.5t30 93.5q0 80 -34.5 122t-117.5 42q-43 0 -74 -12
t-49 -31t-28.5 -48t-13.5 -56.5t-3 -63.5h-209q0 183 88 272.5t299 89.5q102 0 178 -26t124 -88t48 -156zM621 397v185q-33 -26 -132 -61t-114 -42q-90 -44 -90 -178q0 -73 35.5 -119.5t101.5 -46.5q98 0 148.5 69t50.5 193zM547 1286v221h196v-221h-196zM207 1286v221h196
v-221h-196z" />
    <glyph glyph-name="aring" unicode="&#xe5;" horiz-adv-x="948" 
d="M829 860v-631q0 -31 17 -54t41 -23q25 0 37 6v-144q-58 -26 -109 -26q-80 0 -131 35t-55 110h-4q-88 -162 -275 -162q-136 0 -211.5 78t-75.5 232q0 72 13 126t33 88t56 60t68.5 40.5t85.5 31.5l173 47q69 20 99 47.5t30 93.5q0 80 -34.5 122t-117.5 42q-43 0 -74 -12
t-49 -31t-28.5 -48t-13.5 -56.5t-3 -63.5h-209q0 183 88 272.5t299 89.5q102 0 178 -26t124 -88t48 -156zM621 397v185q-33 -26 -132 -61t-114 -42q-90 -44 -90 -178q0 -73 35.5 -119.5t101.5 -46.5q98 0 148.5 69t50.5 193zM360 1432q0 -47 34 -81t81 -34t81 34t34 81
t-34 80.5t-81 33.5t-81 -33.5t-34 -80.5zM258 1432q0 91 63 154t154 63t154 -63t63 -154t-63 -154.5t-154 -63.5t-154 63.5t-63 154.5z" />
    <glyph glyph-name="ae" unicode="&#xe6;" horiz-adv-x="1441" 
d="M817 674h328v59q0 112 -38.5 179t-121.5 67q-47 0 -82 -26.5t-52.5 -68.5t-25.5 -83t-8 -80v-47zM1366 522h-551v-78q0 -314 162 -321q45 0 79 20t51.5 47.5t28.5 64t14 63t3 51.5h209q0 -184 -103.5 -291t-283.5 -107q-62 1 -112 17t-79 35t-54.5 52t-34 50t-21.5 47
q-41 -97 -119.5 -149t-177.5 -52q-134 0 -224 78.5t-90 231.5q0 84 19.5 143.5t59.5 97t84.5 58.5t109.5 38l174 46q55 14 74.5 43.5t19.5 107.5q0 164 -135 164q-43 0 -74 -12t-49 -31t-28.5 -48t-13.5 -56.5t-3 -63.5h-209q0 183 88 272.5t299 89.5q64 0 114 -15.5
t78.5 -40.5t43 -45t22.5 -40q39 67 110.5 103t160.5 38q82 0 143.5 -22t102 -62t66 -102t36 -136t10.5 -169v-117zM606 391v174q-26 -31 -160 -65q-54 -15 -88 -35.5t-49 -50t-19.5 -56t-4.5 -69.5q0 -63 35 -108.5t94 -45.5q192 0 192 256z" />
    <glyph glyph-name="ccedilla" unicode="&#xe7;" horiz-adv-x="909" 
d="M336 -178l96 153q-105 7 -178.5 51t-114 122.5t-58.5 176t-18 226.5q0 107 12 192t41 159t75 123t117 77t165 28q68 1 124.5 -13.5t95 -38.5t68 -58.5t46.5 -70t27.5 -76t14 -73t3.5 -65.5h-221q0 43 -7 80.5t-23.5 74.5t-49 57.5t-78.5 19.5q-47 0 -81 -20.5t-54.5 -55
t-32.5 -89.5t-16 -113.5t-4 -137.5t4 -137.5t16 -113.5t32.5 -89.5t54.5 -55t81 -20.5q168 -3 168 266h209q-10 -193 -82 -300.5t-233 -123.5l-68 -94q55 11 82 11q68 0 114 -45t46 -107q0 -82 -68.5 -133t-171.5 -51q-114 0 -207 34l33 82q71 -26 135 -26q28 0 52 6
t43.5 24.5t19.5 47.5q0 34 -27.5 55.5t-66.5 21.5q-25 0 -78 -16z" />
    <glyph glyph-name="egrave" unicode="&#xe8;" horiz-adv-x="948" 
d="M872 522h-575v-63q0 -52 3 -92.5t14 -88.5t30 -80t54 -53.5t83 -21.5q45 0 79 20t51.5 47.5t28.5 64t14 63t3 51.5h209q0 -184 -103.5 -291t-283.5 -107q-44 0 -79.5 4.5t-78.5 18.5t-76.5 38t-66 67t-54 101t-35 143.5t-13.5 191.5q0 67 4.5 124.5t16 119.5t30.5 112
t50.5 95.5t73.5 76.5t101 49t131 18q113 0 190 -32.5t120 -99t61 -152.5t18 -207v-117zM297 674h354v59q0 113 -40.5 179.5t-129.5 66.5q-67 0 -110 -42.5t-58.5 -102.5t-15.5 -138v-22zM461 1245l-217 295h245l123 -295h-151z" />
    <glyph glyph-name="eacute" unicode="&#xe9;" horiz-adv-x="948" 
d="M872 522h-575v-63q0 -52 3 -92.5t14 -88.5t30 -80t54 -53.5t83 -21.5q45 0 79 20t51.5 47.5t28.5 64t14 63t3 51.5h209q0 -184 -103.5 -291t-283.5 -107q-44 0 -79.5 4.5t-78.5 18.5t-76.5 38t-66 67t-54 101t-35 143.5t-13.5 191.5q0 67 4.5 124.5t16 119.5t30.5 112
t50.5 95.5t73.5 76.5t101 49t131 18q113 0 190 -32.5t120 -99t61 -152.5t18 -207v-117zM297 674h354v59q0 113 -40.5 179.5t-129.5 66.5q-67 0 -110 -42.5t-58.5 -102.5t-15.5 -138v-22zM387 1245l123 295h246l-217 -295h-152z" />
    <glyph glyph-name="ecircumflex" unicode="&#xea;" horiz-adv-x="948" 
d="M872 522h-575v-63q0 -52 3 -92.5t14 -88.5t30 -80t54 -53.5t83 -21.5q45 0 79 20t51.5 47.5t28.5 64t14 63t3 51.5h209q0 -184 -103.5 -291t-283.5 -107q-44 0 -79.5 4.5t-78.5 18.5t-76.5 38t-66 67t-54 101t-35 143.5t-13.5 191.5q0 67 4.5 124.5t16 119.5t30.5 112
t50.5 95.5t73.5 76.5t101 49t131 18q113 0 190 -32.5t120 -99t61 -152.5t18 -207v-117zM297 674h354v59q0 113 -40.5 179.5t-129.5 66.5q-67 0 -110 -42.5t-58.5 -102.5t-15.5 -138v-22zM205 1245l186 295h221l183 -295h-187l-110 180l-117 -180h-176z" />
    <glyph glyph-name="edieresis" unicode="&#xeb;" horiz-adv-x="948" 
d="M872 522h-575v-63q0 -52 3 -92.5t14 -88.5t30 -80t54 -53.5t83 -21.5q45 0 79 20t51.5 47.5t28.5 64t14 63t3 51.5h209q0 -184 -103.5 -291t-283.5 -107q-44 0 -79.5 4.5t-78.5 18.5t-76.5 38t-66 67t-54 101t-35 143.5t-13.5 191.5q0 67 4.5 124.5t16 119.5t30.5 112
t50.5 95.5t73.5 76.5t101 49t131 18q113 0 190 -32.5t120 -99t61 -152.5t18 -207v-117zM297 674h354v59q0 113 -40.5 179.5t-129.5 66.5q-67 0 -110 -42.5t-58.5 -102.5t-15.5 -138v-22zM571 1286v221h197v-221h-197zM231 1286v221h197v-221h-197z" />
    <glyph glyph-name="igrave" unicode="&#xec;" 
d="M117 0v1102h221v-1102h-221zM188 1245l-217 295h246l123 -295h-152z" />
    <glyph glyph-name="iacute" unicode="&#xed;" 
d="M117 0v1102h221v-1102h-221zM115 1245l123 295h245l-217 -295h-151z" />
    <glyph glyph-name="icircumflex" unicode="&#xee;" 
d="M117 0v1102h221v-1102h-221zM-68 1245l187 295h221l182 -295h-186l-111 180l-116 -180h-177z" />
    <glyph glyph-name="idieresis" unicode="&#xef;" 
d="M117 0v1102h221v-1102h-221zM299 1286v221h197v-221h-197zM-41 1286v221h197v-221h-197z" />
    <glyph glyph-name="eth" unicode="&#xf0;" horiz-adv-x="948" 
d="M285 551q0 -90 4 -152t16 -115.5t33 -84t54 -47.5t81 -17t82 17t55.5 47.5t33 84t16 115.5t4.5 152q0 89 -7.5 152.5t-27 120t-58.5 85.5t-98 29q-58 0 -96.5 -29t-58 -85.5t-26.5 -120t-7 -152.5zM193 1225l-74 73l176 97q-66 63 -131 106l162 88q54 -34 135 -104
l186 100l66 -74l-176 -96q200 -191 274 -378t74 -486q0 -580 -412 -580q-410 0 -410 580q0 259 91.5 405t285.5 146q106 0 168 -68l4 4q-92 140 -241 285z" />
    <glyph glyph-name="ntilde" unicode="&#xf1;" horiz-adv-x="985" 
d="M106 0v1102h209v-129h7q41 74 115.5 115.5t166.5 41.5q133 0 204 -69.5t71 -229.5v-831h-222v756q0 107 -35 152.5t-118 45.5q-73 0 -124.5 -56.5t-51.5 -158.5v-739h-222zM676 1511h127q0 -49 -18.5 -102.5t-60.5 -96t-97 -42.5q-50 0 -134 35.5t-112 35.5
q-32 0 -51 -24t-19 -57h-127q0 36 11.5 76t34.5 79t65 64.5t96 25.5q12 0 27.5 -4t23.5 -7t31 -12.5t27 -11.5q78 -36 114 -36q32 0 47 22.5t15 54.5z" />
    <glyph glyph-name="ograve" unicode="&#xf2;" horiz-adv-x="948" 
d="M63 551q0 107 12 192t41 159t75 123t117 77t165 28q95 0 166.5 -28t118 -77t75 -123t40.5 -159t12 -192q0 -580 -412 -580q-410 0 -410 580zM285 551q0 -90 4 -152t16 -115.5t33 -84t54 -47.5t81 -17t82 17t55.5 47.5t33 84t16 115.5t4.5 152q0 100 -7.5 169.5t-27 128.5
t-58.5 88.5t-98 29.5q-47 0 -81 -20.5t-54.5 -55t-32.5 -89.5t-16 -113.5t-4 -137.5zM436 1245l-217 295h246l123 -295h-152z" />
    <glyph glyph-name="oacute" unicode="&#xf3;" horiz-adv-x="948" 
d="M63 551q0 107 12 192t41 159t75 123t117 77t165 28q95 0 166.5 -28t118 -77t75 -123t40.5 -159t12 -192q0 -580 -412 -580q-410 0 -410 580zM285 551q0 -90 4 -152t16 -115.5t33 -84t54 -47.5t81 -17t82 17t55.5 47.5t33 84t16 115.5t4.5 152q0 100 -7.5 169.5t-27 128.5
t-58.5 88.5t-98 29.5q-47 0 -81 -20.5t-54.5 -55t-32.5 -89.5t-16 -113.5t-4 -137.5zM362 1245l123 295h246l-217 -295h-152z" />
    <glyph glyph-name="ocircumflex" unicode="&#xf4;" horiz-adv-x="948" 
d="M63 551q0 107 12 192t41 159t75 123t117 77t165 28q95 0 166.5 -28t118 -77t75 -123t40.5 -159t12 -192q0 -580 -412 -580q-410 0 -410 580zM285 551q0 -90 4 -152t16 -115.5t33 -84t54 -47.5t81 -17t82 17t55.5 47.5t33 84t16 115.5t4.5 152q0 100 -7.5 169.5t-27 128.5
t-58.5 88.5t-98 29.5q-47 0 -81 -20.5t-54.5 -55t-32.5 -89.5t-16 -113.5t-4 -137.5zM180 1245l187 295h221l182 -295h-186l-111 180l-117 -180h-176z" />
    <glyph glyph-name="otilde" unicode="&#xf5;" horiz-adv-x="948" 
d="M63 551q0 107 12 192t41 159t75 123t117 77t165 28q95 0 166.5 -28t118 -77t75 -123t40.5 -159t12 -192q0 -580 -412 -580q-410 0 -410 580zM285 551q0 -90 4 -152t16 -115.5t33 -84t54 -47.5t81 -17t82 17t55.5 47.5t33 84t16 115.5t4.5 152q0 100 -7.5 169.5t-27 128.5
t-58.5 88.5t-98 29.5q-47 0 -81 -20.5t-54.5 -55t-32.5 -89.5t-16 -113.5t-4 -137.5zM657 1511h127q0 -49 -18.5 -102.5t-60.5 -96t-97 -42.5q-50 0 -134 35.5t-112 35.5q-32 0 -50.5 -24t-18.5 -57h-127q0 36 11.5 76t34.5 79t65 64.5t96 25.5q12 0 27 -4t23.5 -7t30 -12.5
t27.5 -11.5q78 -36 115 -36q32 0 46.5 22.5t14.5 54.5z" />
    <glyph glyph-name="odieresis" unicode="&#xf6;" horiz-adv-x="948" 
d="M63 551q0 107 12 192t41 159t75 123t117 77t165 28q95 0 166.5 -28t118 -77t75 -123t40.5 -159t12 -192q0 -580 -412 -580q-410 0 -410 580zM285 551q0 -90 4 -152t16 -115.5t33 -84t54 -47.5t81 -17t82 17t55.5 47.5t33 84t16 115.5t4.5 152q0 100 -7.5 169.5t-27 128.5
t-58.5 88.5t-98 29.5q-47 0 -81 -20.5t-54.5 -55t-32.5 -89.5t-16 -113.5t-4 -137.5zM547 1286v221h196v-221h-196zM207 1286v221h196v-221h-196z" />
    <glyph glyph-name="divide" unicode="&#xf7;" horiz-adv-x="1228" 
d="M467 98q0 62 43 105t104 43q62 0 105 -43t43 -105q0 -61 -43 -104t-105 -43t-104.5 42.5t-42.5 104.5zM96 430v176h1037v-176h-1037zM467 938q0 62 42.5 104.5t104.5 42.5t105 -43t43 -104t-43 -104t-105 -43t-104.5 42.5t-42.5 104.5z" />
    <glyph glyph-name="oslash" unicode="&#xf8;" horiz-adv-x="948" 
d="M303 313l283 609q-45 45 -113 45q-47 0 -81 -20.5t-54.5 -55t-32.5 -89.5t-16 -113.5t-4 -137.5q0 -143 14 -238h4zM643 791l-281 -611q42 -45 111 -45q59 0 98 29.5t58.5 88.5t27 128.5t7.5 169.5q0 144 -17 240h-4zM121 -74l72 152q-130 130 -130 473q0 107 12 192
t41 159t75 123t117 77t165 28q115 0 191 -40l61 133l98 -54l-67 -143q129 -129 129 -475q0 -107 -12 -192t-40.5 -159.5t-75 -123.5t-118 -77t-166.5 -28q-113 0 -190 39l-64 -137z" />
    <glyph glyph-name="ugrave" unicode="&#xf9;" horiz-adv-x="985" 
d="M670 0v129h-6q-41 -74 -116 -116t-167 -42q-65 0 -113 17t-85.5 56.5t-57 111.5t-19.5 176v770h222v-791q0 -89 37.5 -126.5t111.5 -37.5q75 0 127.5 48.5t52.5 136.5v770h222v-1102h-209zM455 1245l-217 295h245l123 -295h-151z" />
    <glyph glyph-name="uacute" unicode="&#xfa;" horiz-adv-x="985" 
d="M670 0v129h-6q-41 -74 -116 -116t-167 -42q-65 0 -113 17t-85.5 56.5t-57 111.5t-19.5 176v770h222v-791q0 -89 37.5 -126.5t111.5 -37.5q75 0 127.5 48.5t52.5 136.5v770h222v-1102h-209zM381 1245l123 295h246l-218 -295h-151z" />
    <glyph glyph-name="ucircumflex" unicode="&#xfb;" horiz-adv-x="985" 
d="M670 0v129h-6q-41 -74 -116 -116t-167 -42q-65 0 -113 17t-85.5 56.5t-57 111.5t-19.5 176v770h222v-791q0 -89 37.5 -126.5t111.5 -37.5q75 0 127.5 48.5t52.5 136.5v770h222v-1102h-209zM199 1245l186 295h221l182 -295h-186l-110 180l-117 -180h-176z" />
    <glyph glyph-name="udieresis" unicode="&#xfc;" horiz-adv-x="985" 
d="M670 0v129h-6q-41 -74 -116 -116t-167 -42q-65 0 -113 17t-85.5 56.5t-57 111.5t-19.5 176v770h222v-791q0 -89 37.5 -126.5t111.5 -37.5q75 0 127.5 48.5t52.5 136.5v770h222v-1102h-209zM565 1286v221h197v-221h-197zM225 1286v221h197v-221h-197z" />
    <glyph glyph-name="yacute" unicode="&#xfd;" horiz-adv-x="872" 
d="M16 1102h238l190 -828h5l176 828h231l-303 -1143q-22 -77 -42 -130t-45.5 -92t-51.5 -61t-65 -34.5t-79.5 -16t-101.5 -2.5q-30 0 -88 8v176q50 -8 72 -8q61 0 96 18t53 68l29 90zM324 1245l122 295h246l-217 -295h-151z" />
    <glyph glyph-name="thorn" unicode="&#xfe;" horiz-adv-x="985" 
d="M106 -360v1822h222v-489h4q31 74 96 115.5t154 41.5q340 0 340 -593q0 -133 -21 -236t-54.5 -164t-79.5 -99.5t-90.5 -52.5t-94.5 -14q-88 0 -153.5 42t-96.5 116h-4v-489h-222zM315 563q0 -215 39.5 -315.5t149.5 -100.5q98 0 141 88.5t43 311.5q0 101 -7.5 170.5
t-27.5 125.5t-57.5 83.5t-93.5 27.5t-93.5 -27t-57.5 -81t-28 -121.5t-8 -161.5z" />
    <glyph glyph-name="ydieresis" unicode="&#xff;" horiz-adv-x="872" 
d="M16 1102h238l190 -828h5l176 828h231l-303 -1143q-22 -77 -42 -130t-45.5 -92t-51.5 -61t-65 -34.5t-79.5 -16t-101.5 -2.5q-30 0 -88 8v176q50 -8 72 -8q61 0 96 18t53 68l29 90zM508 1286v221h197v-221h-197zM168 1286v221h197v-221h-197z" />
    <glyph glyph-name="dotlessi" unicode="&#x131;" 
d="M117 0v1102h221v-1102h-221z" />
    <glyph glyph-name="Lslash" unicode="&#x141;" horiz-adv-x="909" 
d="M94 0v535l-114 -80v200l114 80v727h234v-567l299 207v-201l-299 -207v-497h565v-197h-799z" />
    <glyph glyph-name="lslash" unicode="&#x142;" 
d="M117 0v586l-117 -82v196l117 82v680h221v-528l117 82v-197l-117 -82v-737h-221z" />
    <glyph glyph-name="OE" unicode="&#x152;" horiz-adv-x="1630" 
d="M819 0v104h-4q-41 -66 -116.5 -99.5t-166.5 -33.5q-229 0 -337.5 182.5t-108.5 577.5q0 390 112 575t343 185q196 0 274 -119h4v90h725v-196h-520v-406h487v-196h-487v-467h537v-197h-742zM803 483v496q0 102 -16 170.5t-47.5 103.5t-67.5 48.5t-86 13.5
q-51 0 -88.5 -12.5t-72.5 -49.5t-57 -100t-35.5 -167.5t-13.5 -248.5q0 -147 13 -254.5t34.5 -171t55 -101.5t68 -50.5t79.5 -12.5q56 0 95 13.5t72.5 48.5t50 103.5t16.5 170.5z" />
    <glyph glyph-name="oe" unicode="&#x153;" horiz-adv-x="1478" 
d="M866 674h328v59q0 112 -38.5 179t-121.5 67q-47 0 -82 -26.5t-52.5 -68.5t-25.5 -83t-8 -80v-47zM1202 369h209q0 -184 -103.5 -291t-283.5 -107q-57 0 -104.5 15.5t-75.5 36.5t-49 48.5t-29 44t-12 31.5q-86 -176 -303 -176q-109 0 -185.5 41.5t-120 121t-63 181.5
t-19.5 236q0 135 19.5 236t64.5 180.5t124.5 121t193.5 41.5q58 0 106 -11.5t77 -27t55 -41.5t37.5 -43t27.5 -44q52 87 119.5 127t169.5 40q82 0 143.5 -22t102 -62t66 -102t36 -136t10.5 -169v-117h-551v-78q0 -314 162 -321q45 0 79 20t51.5 47.5t28.5 64t14 63t3 51.5z
M285 551q0 -100 7 -169.5t25.5 -128.5t55.5 -88.5t92 -29.5q40 0 70.5 13.5t51 40.5t34 62t21 84.5t10.5 99.5t3 116t-3 116t-10.5 99.5t-21 84.5t-34 62t-51 40.5t-70.5 13.5q-55 0 -92 -29.5t-55.5 -88.5t-25.5 -128.5t-7 -169.5z" />
    <glyph glyph-name="Scaron" unicode="&#x160;" horiz-adv-x="1062" 
d="M68 453h233v-37q0 -269 240 -269q105 0 163 62.5t58 150.5q0 110 -52 170t-157 91l-160 55q-162 62 -233.5 154t-71.5 247q0 197 123 305.5t332 108.5q107 0 186.5 -26.5t121.5 -64.5t67 -94t31.5 -101t6.5 -99v-33h-233v31q0 211 -205 211q-84 0 -140 -51t-56 -160
q0 -92 50 -147.5t169 -100.5l157 -57q156 -56 226.5 -146.5t70.5 -240.5q0 -226 -126.5 -333.5t-356.5 -107.5q-104 0 -184.5 27.5t-128.5 70.5t-78.5 103.5t-41.5 119.5t-11 126v35zM420 1544l-182 295h186l111 -180l116 180h176l-186 -295h-221z" />
    <glyph glyph-name="scaron" unicode="&#x161;" horiz-adv-x="872" 
d="M791 780h-209v29q0 170 -146 170q-71 0 -114 -35t-43 -108q0 -64 33 -97.5t122 -64.5l141 -49q125 -42 182.5 -116t57.5 -202q0 -86 -30 -151.5t-84 -105.5t-124.5 -59.5t-156.5 -19.5q-200 0 -281.5 86t-81.5 256v41h197v-35q0 -99 40 -147.5t132 -48.5q89 0 134.5 42.5
t45.5 119.5q0 119 -121 161l-180 64q-126 43 -180.5 115t-54.5 202q0 151 100 227t276 76q81 0 143.5 -18.5t99.5 -47.5t61 -70t32.5 -80.5t8.5 -84.5v-49zM324 1245l-183 295h187l110 -180l117 180h176l-186 -295h-221z" />
    <glyph glyph-name="Ydieresis" unicode="&#x178;" horiz-adv-x="985" 
d="M369 0v571l-377 891h260l246 -631l252 631h243l-391 -891v-571h-233zM565 1585v221h197v-221h-197zM225 1585v221h197v-221h-197z" />
    <glyph glyph-name="Zcaron" unicode="&#x17d;" horiz-adv-x="948" 
d="M37 0v184l612 1082h-575v196h831v-196l-612 -1069h618v-197h-874zM362 1544l-182 295h187l110 -180l117 180h176l-186 -295h-222z" />
    <glyph glyph-name="zcaron" unicode="&#x17e;" horiz-adv-x="833" 
d="M51 0v172l481 743h-452v187h702v-182l-463 -734h463v-186h-731zM305 1245l-182 295h186l111 -180l117 180h176l-187 -295h-221z" />
    <glyph glyph-name="florin" unicode="&#x192;" horiz-adv-x="983" 
d="M195 889h217l57 264q17 74 39 126t59 96t95.5 65.5t138.5 21.5q97 0 157 -16l-30 -156q-6 1 -20.5 3t-29 3.5t-28.5 1.5q-72 0 -115 -42.5t-65 -147.5l-49 -219h229l-23 -139h-233l-156 -760q-19 -91 -44 -152.5t-65.5 -108t-101 -68t-145.5 -21.5q-91 0 -135 12l35 160
q40 -9 86 -9q75 0 107 38t52 132l158 777h-213z" />
    <glyph glyph-name="circumflex" unicode="&#x2c6;" 
d="M-68 1245l187 295h221l182 -295h-186l-111 180l-116 -180h-177z" />
    <glyph glyph-name="caron" unicode="&#x2c7;" 
d="M115 1245l-183 295h187l110 -180l117 180h176l-186 -295h-221z" />
    <glyph glyph-name="uni02C9" unicode="&#x2c9;" 
d="M-61 1462h577v-127h-577v127z" />
    <glyph glyph-name="breve" unicode="&#x2d8;" 
d="M-45 1522h127q0 -45 40 -91.5t105 -46.5t105.5 46.5t40.5 91.5h127q0 -120 -73 -198.5t-200 -78.5t-199.5 78.5t-72.5 198.5z" />
    <glyph glyph-name="dotaccent" unicode="&#x2d9;" 
d="M129 1286v221h197v-221h-197z" />
    <glyph glyph-name="ring" unicode="&#x2da;" 
d="M113 1432q0 -47 33.5 -81t80.5 -34t81 34t34 81t-34 80.5t-81 33.5t-80.5 -33.5t-33.5 -80.5zM10 1432q0 91 63 154t154 63t154 -63t63 -154t-63 -154.5t-154 -63.5t-154 63.5t-63 154.5z" />
    <glyph glyph-name="ogonek" unicode="&#x2db;" 
d="M248 0h102q-137 -123 -137 -236q0 -56 31 -86t86 -30q43 0 90 14l12 -86q-70 -18 -160 -18q-101 0 -162 45.5t-61 136.5q0 73 55 143t144 117z" />
    <glyph glyph-name="tilde" unicode="&#x2dc;" 
d="M410 1511h127q0 -49 -19 -102.5t-61 -96t-97 -42.5q-50 0 -133.5 35.5t-111.5 35.5q-32 0 -51 -24t-19 -57h-127q0 36 11.5 76t34.5 79t65 64.5t96 25.5q12 0 27 -4t23.5 -7t30 -12.5t27.5 -11.5q78 -36 115 -36q32 0 47 22.5t15 54.5z" />
    <glyph glyph-name="hungarumlaut" unicode="&#x2dd;" 
d="M-131 1245l123 295h246l-218 -295h-151zM279 1245l122 295h246l-217 -295h-151z" />
    <glyph glyph-name="uni03A9" unicode="&#x3a9;" horiz-adv-x="1245" 
d="M319 168v6q-96 107 -158.5 264.5t-62.5 343.5q0 189 67.5 341t189 238.5t274.5 86.5q97 0 180.5 -36.5t143.5 -99.5t103 -146t64 -177t21 -192q0 -191 -65 -356.5t-158 -266.5v-6h247v-168h-444v123q94 75 158.5 238.5t64.5 390.5q-1 99 -21 190.5t-58 166t-100 119
t-140 44.5q-150 0 -240 -149t-90 -380q0 -211 66 -380t157 -240v-123h-446v168h247z" />
    <glyph glyph-name="uni03BC" unicode="&#x3bc;" horiz-adv-x="985" 
d="M106 -360v1462h222v-756q0 -108 35 -153.5t118 -45.5q73 0 124.5 56.5t51.5 158.5v740h222v-1102h-209v129h-6q-41 -73 -104.5 -115.5t-129.5 -42.5q-65 0 -102 37v-368h-222z" />
    <glyph glyph-name="pi" unicode="&#x3c0;" horiz-adv-x="1054" 
d="M1008 891h-131v-604q0 -173 24 -287h-186q-31 64 -31 279v612h-272q-9 -203 -43 -471.5t-80 -419.5h-189q47 172 80.5 433.5t38.5 457.5q-115 0 -180 -21l-25 138q80 59 281 59h729z" />
    <glyph glyph-name="endash" unicode="&#x2013;" horiz-adv-x="1024" 
d="M0 494v196h1024v-196h-1024z" />
    <glyph glyph-name="emdash" unicode="&#x2014;" horiz-adv-x="2048" 
d="M0 494v196h2048v-196h-2048z" />
    <glyph glyph-name="quoteleft" unicode="&#x2018;" horiz-adv-x="491" 
d="M129 877v270q0 131 52.5 210.5t180.5 104.5v-119q-48 -12 -75 -55t-27 -110v-31h102v-270h-233z" />
    <glyph glyph-name="quoteright" unicode="&#x2019;" horiz-adv-x="491" 
d="M129 1192v270h233v-270q0 -131 -52.5 -210.5t-180.5 -104.5v118q48 12 75 55.5t27 110.5v31h-102z" />
    <glyph glyph-name="quotesinglbase" unicode="&#x201a;" horiz-adv-x="491" 
d="M129 0v270h233v-270q0 -131 -52.5 -210.5t-180.5 -104.5v118q48 12 75 55.5t27 110.5v31h-102z" />
    <glyph glyph-name="quotedblleft" unicode="&#x201c;" horiz-adv-x="872" 
d="M137 877v270q0 131 53 210.5t181 104.5v-119q-48 -12 -75.5 -55t-27.5 -110v-31h103v-270h-234zM502 877v270q0 131 52.5 210.5t180.5 104.5v-119q-48 -12 -75 -55t-27 -110v-31h102v-270h-233z" />
    <glyph glyph-name="quotedblright" unicode="&#x201d;" horiz-adv-x="872" 
d="M502 1192v270h233v-270q0 -131 -52.5 -210.5t-180.5 -104.5v118q48 12 75 55.5t27 110.5v31h-102zM137 1192v270h234v-270q0 -131 -53 -210.5t-181 -104.5v118q48 12 75.5 55.5t27.5 110.5v31h-103z" />
    <glyph glyph-name="quotedblbase" unicode="&#x201e;" horiz-adv-x="872" 
d="M502 0v270h233v-270q0 -131 -52.5 -210.5t-180.5 -104.5v118q48 12 75 55.5t27 110.5v31h-102zM137 0v270h234v-270q0 -131 -53 -210.5t-181 -104.5v118q48 12 75.5 55.5t27.5 110.5v31h-103z" />
    <glyph glyph-name="dagger" unicode="&#x2020;" horiz-adv-x="987" 
d="M383 1049v413h221v-413h350v-187h-350v-1153h-221v1153h-350v187h350z" />
    <glyph glyph-name="daggerdbl" unicode="&#x2021;" horiz-adv-x="987" 
d="M383 1063v399h221v-399h352v-176h-352v-594h352v-176h-352v-408h-221v408h-352v176h352v594h-352v176h352z" />
    <glyph glyph-name="bullet" unicode="&#x2022;" horiz-adv-x="1024" 
d="M147 731q0 151 107 258t258 107t258 -107t107 -258t-107 -257.5t-258 -106.5t-258 106.5t-107 257.5z" />
    <glyph glyph-name="ellipsis" unicode="&#x2026;" horiz-adv-x="2048" 
d="M225 0v270h234v-270h-234zM907 0v270h234v-270h-234zM1589 0v270h234v-270h-234z" />
    <glyph glyph-name="perthousand" unicode="&#x2030;" horiz-adv-x="2162" 
d="M1831 631q-61 0 -83 -59.5t-22 -206.5t22 -207t83 -60t82.5 59.5t21.5 207.5t-21.5 207t-82.5 59zM995 1450h158l-653 -1479h-154zM332 1323q-61 0 -83 -59.5t-22 -206.5t22 -206.5t83 -59.5t82.5 59t21.5 207t-21.5 207t-82.5 59zM1831 758q64 0 112.5 -19t87.5 -62.5
t59.5 -122t20.5 -189.5t-20.5 -189.5t-59.5 -122.5t-87.5 -63t-112.5 -19t-113 19t-88 63t-59.5 122.5t-20.5 189.5t20.5 189.5t59.5 122t88 62.5t113 19zM332 1450q64 0 112.5 -19t87.5 -62.5t59.5 -122t20.5 -189.5t-20.5 -189.5t-59.5 -122t-87.5 -62.5t-112.5 -19
t-113 19t-88 62.5t-59.5 122t-20.5 189.5t20.5 189.5t59.5 122t88 62.5t113 19zM1178 631q-61 0 -83 -59.5t-22 -206.5t22 -207t83 -60t82.5 59.5t21.5 207.5t-21.5 207t-82.5 59zM1178 758q64 0 112.5 -19t87.5 -62.5t59.5 -122t20.5 -189.5t-20.5 -189.5t-59.5 -122.5
t-87.5 -63t-112.5 -19t-113 19t-88 63t-59.5 122.5t-20.5 189.5t20.5 189.5t59.5 122t88 62.5t113 19z" />
    <glyph glyph-name="guilsinglleft" unicode="&#x2039;" horiz-adv-x="491" 
d="M98 475v234l295 276v-225l-180 -168l180 -168v-225z" />
    <glyph glyph-name="guilsinglright" unicode="&#x203a;" horiz-adv-x="491" 
d="M393 709v-234l-295 -276v225l181 168l-181 168v225z" />
    <glyph glyph-name="fraction" unicode="&#x2044;" horiz-adv-x="342" 
d="M-336 -63l862 1548h152l-862 -1548h-152z" />
    <glyph glyph-name="Euro" unicode="&#x20ac;" horiz-adv-x="983" 
d="M983 1309l-70 -189q-34 75 -106 121q-69 45 -164 45q-107 0 -166 -67q-79 -88 -90 -291h459l-49 -140h-418q-3 -68 0 -143h379l-49 -139h-322q7 -205 90 -299q64 -72 170 -72q92 0 174 43q81 41 129 117v-225q-45 -38 -94 -58q-93 -41 -213 -41q-194 0 -307 88
q-53 42 -91 105t-56 130.5t-25.5 116.5t-9.5 95h-154l49 139h96q-3 75 0 143h-145l49 140h105q18 305 182 434q112 88 301 88q123 0 213 -39q78 -36 133 -102z" />
    <glyph glyph-name="afii61289" unicode="&#x2113;" horiz-adv-x="897" 
d="M782 315l82 -79q-122 -256 -350 -256q-82 0 -144 28.5t-98.5 80t-55 114.5t-21.5 139v27q-95 -83 -99 -86l-51 108q17 15 50 45t56.5 52t43.5 44v543q0 127 25 224t68.5 153.5t97 84.5t114.5 28q116 0 175.5 -93.5t59.5 -246.5q0 -331 -354 -715l2 -94q0 -141 47 -209
t125 -68q124 0 227 176zM381 1063v-358q235 296 235 528q0 182 -108 182q-33 0 -60 -30t-47 -112.5t-20 -209.5z" />
    <glyph glyph-name="trademark" unicode="&#x2122;" horiz-adv-x="2048" 
d="M317 618v705h-251v139h679v-139h-251v-705h-177zM1696 618v668h-4l-248 -668h-115l-248 668h-4v-668h-164v844h244l229 -598l230 598h244v-844h-164z" />
    <glyph glyph-name="Omega" unicode="&#x2126;" horiz-adv-x="1245" 
d="M319 168v6q-96 107 -158.5 264.5t-62.5 343.5q0 189 67.5 341t189 238.5t274.5 86.5q97 0 180.5 -36.5t143.5 -99.5t103 -146t64 -177t21 -192q0 -191 -65 -356.5t-158 -266.5v-6h247v-168h-444v123q94 75 158.5 238.5t64.5 390.5q-1 99 -21 190.5t-58 166t-100 119
t-140 44.5q-150 0 -240 -149t-90 -380q0 -211 66 -380t157 -240v-123h-446v168h247z" />
    <glyph glyph-name="estimated" unicode="&#x212e;" horiz-adv-x="1781" 
d="M1712 690h-1331q-10 0 -10 -8v-403q0 -28 18 -46q100 -103 229 -161t273 -58q156 0 293 65t237 179h117q-111 -131 -282.5 -208t-366.5 -77q-167 0 -318.5 58.5t-261 157t-174.5 235.5t-65 287t65 287t174.5 236t261 157.5t318.5 58.5q168 0 320 -58.5t262.5 -157.5
t175.5 -236t65 -287v-21zM1409 743v404q0 28 -18 49q-100 98 -228.5 153.5t-271.5 55.5q-142 0 -271 -58t-229 -159q-20 -17 -20 -49v-396q0 -14 10 -14h1020q8 0 8 14z" />
    <glyph glyph-name="partialdiff" unicode="&#x2202;" horiz-adv-x="1015" 
d="M188 1337l-55 156q134 111 313 111q94 0 178 -46t152 -136t108 -241.5t40 -344.5q0 -262 -56.5 -453.5t-167.5 -296t-266 -104.5q-86 0 -155.5 40t-113 107t-66.5 150.5t-23 175.5q0 121 32 222.5t86 168.5t124 104t147 37q97 0 166 -49t98 -104h2q2 18 2 73
q0 143 -40 263.5t-111.5 192t-159.5 71.5q-124 0 -234 -97zM453 154h2q70 0 127.5 73t90 182t42.5 236q-21 66 -78 121t-137 55q-98 0 -165 -111.5t-67 -263.5q0 -129 50.5 -210.5t134.5 -81.5z" />
    <glyph glyph-name="Delta" unicode="&#x2206;" horiz-adv-x="1161" 
d="M53 0v125l420 1333h227l406 -1329v-129h-1053zM250 166h653l-213 668q-12 43 -54.5 181t-53.5 191h-7q-8 -47 -48 -176.5t-50 -169.5z" />
    <glyph glyph-name="product" unicode="&#x220f;" horiz-adv-x="1282" 
d="M1231 1239h-182v-1436h-195v1436h-428v-1436h-195v1436h-182v186h1182v-186z" />
    <glyph glyph-name="summation" unicode="&#x2211;" horiz-adv-x="997" 
d="M958 -197h-913v138l455 675l-439 666v143h867v-172h-609v-6l398 -594l-441 -651v-6h682v-193z" />
    <glyph glyph-name="minus" unicode="&#x2212;" horiz-adv-x="1228" 
d="M96 430v176h1037v-176h-1037z" />
    <glyph glyph-name="uni2215" unicode="&#x2215;" horiz-adv-x="342" 
d="M-336 -63l862 1548h152l-862 -1548h-152z" />
    <glyph glyph-name="uni2219" unicode="&#x2219;" horiz-adv-x="491" 
d="M98 631q0 61 43 104t105 43t104.5 -43t42.5 -104q0 -62 -43 -105t-104 -43q-62 0 -105 43.5t-43 104.5z" />
    <glyph glyph-name="radical" unicode="&#x221a;" horiz-adv-x="1064" 
d="M1065 1708l-399 -1999h-162l-273 918l-135 -52l-33 119l289 115l197 -672q4 -19 35 -172l2 -2q1 6 10 73t16 107l316 1565h137z" />
    <glyph glyph-name="infinity" unicode="&#x221e;" horiz-adv-x="1468" 
d="M1374 592v-2q0 -144 -88 -232t-209 -88q-88 0 -167.5 50t-172.5 169q-87 -106 -168 -162.5t-186 -56.5q-119 0 -205 89t-86 223q0 138 86.5 226.5t218.5 88.5q98 0 180 -56t164 -159q83 93 122 125q107 90 227 90q124 0 204 -85t80 -220zM399 387h2q40 0 76.5 14.5
t75.5 49.5t58 55t61 69q-30 39 -41 53.5t-38 46.5t-45 45.5t-45 31.5t-55 25t-59 7q-84 0 -131 -57.5t-47 -146.5q0 -81 53.5 -137t134.5 -56zM1077 784h-2q-34 0 -67 -12t-65.5 -39t-51 -45t-51 -55.5t-39.5 -44.5q96 -114 153 -157.5t127 -43.5q79 0 126.5 60.5
t47.5 134.5q0 92 -49 147t-129 55z" />
    <glyph glyph-name="integral" unicode="&#x222b;" horiz-adv-x="720" 
d="M674 1731l-25 -144q-31 17 -63 17q-56 0 -92 -50q-54 -75 -54 -354q0 -160 12.5 -492t12.5 -511q0 -284 -74 -412q-32 -64 -90.5 -94.5t-128.5 -30.5q-78 0 -129 31l29 147q53 -20 75 -20q53 0 82 45q54 77 54 332q0 180 -13.5 518.5t-13.5 505.5q0 176 24 278.5
t82 167.5q36 43 90 65.5t113 22.5q58 0 109 -22z" />
    <glyph glyph-name="approxequal" unicode="&#x2248;" horiz-adv-x="1007" 
d="M856 883l74 -64q-39 -88 -101 -141t-141 -53q-51 0 -93.5 16.5t-113.5 58.5q-36 23 -56 34.5t-49 21.5t-57 10q-29 0 -54 -10.5t-46 -33t-35 -42.5t-34 -53l-76 61q41 89 109 142t149 53q26 0 50 -4.5t48 -14.5t36.5 -16.5t37 -21t28.5 -17.5q4 -2 24.5 -15t25 -15.5
t21 -11.5t23.5 -11.5t20 -7t23.5 -6t22.5 -1.5q52 0 88 35t76 107zM856 543l74 -64q-39 -88 -101 -141t-141 -53q-51 0 -95 17t-112 58q-39 25 -56.5 35.5t-47.5 21.5t-58 11q-29 0 -53.5 -11t-46.5 -35t-35 -42t-34 -53l-76 61q41 89 109 142t149 53q26 0 50.5 -4.5t47 -14
t36.5 -16.5t36 -20.5t28 -16.5q11 -7 33.5 -20.5t34.5 -20t29.5 -14.5t33.5 -11.5t33 -3.5q50 0 86.5 35t75.5 107z" />
    <glyph glyph-name="notequal" unicode="&#x2260;" horiz-adv-x="1007" 
d="M731 1006l-74 -175h258v-120h-303l-112 -265h415v-120h-460l-93 -213l-94 37l78 176h-256v120h301l113 265h-414v120h457l90 211z" />
    <glyph glyph-name="lessequal" unicode="&#x2264;" horiz-adv-x="1007" 
d="M911 209l-811 432v129l809 432v-145l-690 -348v-4l692 -351v-145zM918 6h-826v125h826v-125z" />
    <glyph glyph-name="greaterequal" unicode="&#x2265;" horiz-adv-x="1007" 
d="M104 1202l809 -432v-129l-809 -432v145l691 348v5l-691 350v145zM918 6h-824v125h824v-125z" />
    <glyph glyph-name="lozenge" unicode="&#x25ca;" horiz-adv-x="1064" 
d="M969 713l-361 -801h-162l-350 801l361 800h161zM793 707l-222 507q-21 69 -34 125h-7q-17 -80 -34 -125l-224 -497l224 -514q23 -70 30 -119h9q15 73 32 115z" />
    </font>
</defs>
</svg>
