<?xml version="1.0" standalone="no"?>
<!DOCTYPE svg PUBLIC "-//W3C//DTD SVG 1.1//EN" "http://www.w3.org/Graphics/SVG/1.1/DTD/svg11.dtd" >
<svg xmlns="http://www.w3.org/2000/svg" xmlns:xlink="http://www.w3.org/1999/xlink" version="1.1">
<metadata>
Created by FontForge 20170731 at Sat Jul  1 12:55:44 2023
 By Aleksey,,,
Copyright (c) 1990, 2002 Adobe Systems Incorporated.  All Rights Reserved. (c) 1981, 2002 Heidelberger Druckmaschinen AG. All rights reserved.
</metadata>
<defs>
<font id="font__helvetica-rounded-lt-st--600" horiz-adv-x="983" >
  <font-face 
    font-family="font__helvetica-rounded-lt-st"
    font-weight="600"
    font-stretch="condensed"
    units-per-em="2048"
    panose-1="2 11 7 6 3 5 2 3 2 4"
    ascent="1462"
    descent="-586"
    x-height="1102"
    cap-height="1462"
    bbox="-336 -459 2183 1968"
    underline-thickness="102"
    underline-position="-307"
    unicode-range="U+0020-FB02"
  />
<missing-glyph horiz-adv-x="1024" 
d="M0 0v1434h1024v-1434h-1024zM512 809l348 522h-696zM573 717l349 -522v1044zM164 102h696l-348 523zM102 1239v-1044l349 522z" />
    <glyph glyph-name="fi" unicode="fi" horiz-adv-x="1099" 
d="M713 0v1102h282v-1102h-282zM713 1237v242h282v-242h-282zM156 0v909h-144v193h144v125q0 143 75 203.5t220 60.5q75 0 151 -6v-201q-18 2 -55 2q-60 0 -84.5 -20t-24.5 -68v-96h164v-193h-164v-909h-282z" />
    <glyph glyph-name="fl" unicode="fl" horiz-adv-x="1099" 
d="M713 0v1479h282v-1479h-282zM156 0v909h-144v193h144v125q0 143 75 203.5t220 60.5q75 0 151 -6v-201q-18 2 -55 2q-60 0 -84.5 -20t-24.5 -68v-96h164v-193h-164v-909h-282z" />
    <glyph glyph-name=".notdef" horiz-adv-x="1024" 
d="M0 0v1434h1024v-1434h-1024zM512 809l348 522h-696zM573 717l349 -522v1044zM164 102h696l-348 523zM102 1239v-1044l349 522z" />
    <glyph glyph-name=".null" horiz-adv-x="0" 
 />
    <glyph glyph-name="nonmarkingreturn" horiz-adv-x="682" 
 />
    <glyph glyph-name="space" unicode=" " horiz-adv-x="491" 
 />
    <glyph glyph-name="exclam" unicode="!" horiz-adv-x="606" 
d="M406 408h-205l-39 579v475h282v-475zM162 270h282v-270h-282v270z" />
    <glyph glyph-name="quotedbl" unicode="&#x22;" horiz-adv-x="948" 
d="M547 805v657h254v-657h-254zM147 805v657h254v-657h-254z" />
    <glyph glyph-name="numbersign" unicode="#" 
d="M0 356v230h178l33 250h-150v229h177l45 356h196l-43 -356h199l45 356h199l-45 -356h149v-229h-176l-33 -250h150v-230h-176l-46 -356h-198l45 356h-201l-43 -356h-199l46 356h-152zM408 836l-31 -250h198l33 250h-200z" />
    <glyph glyph-name="dollar" unicode="$" 
d="M551 551v-363q60 13 89.5 58t29.5 106q0 74 -29 120.5t-90 78.5zM420 905v328q-101 -30 -101 -156q0 -113 101 -172zM420 -207v178q-99 8 -172 34.5t-116.5 63.5t-69.5 91t-35 108t-9 123v43h283q0 -50 3.5 -83.5t15 -70t36.5 -59.5t64 -33v414l-103 37
q-280 101 -280 393q0 185 99.5 291t283.5 127v141h131v-141q87 -7 154.5 -32.5t109 -61.5t68.5 -85.5t37 -99.5t10 -108v-29h-283q-3 169 -96 199v-387l162 -66q49 -20 85 -40.5t69 -51.5t53.5 -68t32.5 -90t12 -120q0 -216 -103 -320.5t-311 -118.5v-178h-131z" />
    <glyph glyph-name="percent" unicode="%" horiz-adv-x="1593" 
d="M1141 371q0 -54 1.5 -88t6.5 -67t15 -50.5t26.5 -28t40.5 -10.5q57 0 73.5 54.5t16.5 189.5q0 62 -2.5 98t-11.5 68.5t-27.5 46.5t-48.5 14t-48.5 -14t-27.5 -46.5t-11.5 -68.5t-2.5 -98zM924 362q0 105 12.5 173.5t45.5 120.5t94 75t155 23t155 -23t94 -75t45.5 -120.5
t12.5 -173.5t-12.5 -173.5t-45.5 -120t-94 -74.5t-155 -23t-155 23t-94 74.5t-45.5 120t-12.5 173.5zM55 1059q0 105 12.5 173.5t45.5 120t94 74.5t155 23t155 -23t94.5 -74.5t46 -120t12.5 -173.5t-12.5 -173.5t-46 -120t-94.5 -74.5t-155 -23t-155 23t-94 74.5t-45.5 120
t-12.5 173.5zM272 1067q0 -54 1.5 -88t6.5 -67t15 -50.5t26.5 -28t40.5 -10.5q57 0 74 54.5t17 189.5q0 122 -17 174.5t-74 52.5q-30 0 -48.5 -14t-27.5 -46.5t-11.5 -68.5t-2.5 -98zM287 -63l831 1548h182l-831 -1548h-182z" />
    <glyph glyph-name="ampersand" unicode="&#x26;" horiz-adv-x="1214" 
d="M412 1163q0 -61 73 -159l35 -50l53 45q93 75 93 160q0 59 -35.5 91t-93.5 32q-54 0 -89.5 -32t-35.5 -87zM702 293l-245 348q-82 -63 -116 -121t-34 -127q0 -75 55.5 -133.5t149.5 -58.5q116 0 190 92zM653 778l219 -297q23 46 37.5 110.5t14.5 110.5h254
q0 -219 -150 -432l193 -270h-314l-82 113q-55 -66 -150 -104t-202 -38q-106 0 -188.5 28.5t-130 72t-78 102.5t-41 111.5t-10.5 107.5q0 239 294 422l-51 76q-59 87 -78.5 142.5t-19.5 121.5q0 141 103.5 224t269.5 83q179 0 271.5 -85t92.5 -220q0 -107 -61.5 -197
t-192.5 -182z" />
    <glyph glyph-name="quotesingle" unicode="'" horiz-adv-x="532" 
d="M139 805v657h254v-657h-254z" />
    <glyph glyph-name="parenleft" unicode="(" horiz-adv-x="606" 
d="M389 1462h217q-126 -229 -179.5 -442.5t-53.5 -476.5t53.5 -477t179.5 -443h-217q-287 455 -287 920q0 464 287 919z" />
    <glyph glyph-name="parenright" unicode=")" horiz-adv-x="606" 
d="M0 1462h217q287 -455 287 -919q0 -465 -287 -920h-217q126 229 179.5 443t53.5 477t-53.5 476.5t-179.5 442.5z" />
    <glyph glyph-name="asterisk" unicode="*" horiz-adv-x="798" 
d="M315 1462h168v-262l250 82l51 -160l-249 -82l155 -213l-137 -98l-154 213l-153 -213l-137 98l155 213l-250 82l52 160l249 -82v262z" />
    <glyph glyph-name="plus" unicode="+" horiz-adv-x="1228" 
d="M487 0v391h-391v254h391v391h254v-391h392v-254h-392v-391h-254z" />
    <glyph glyph-name="comma" unicode="," horiz-adv-x="491" 
d="M111 319h270v-266q0 -69 -7 -122.5t-25 -102.5t-48 -82.5t-78 -55.5t-112 -28v143q51 9 78.5 55t27.5 107v33h-106v319z" />
    <glyph glyph-name="hyphen" unicode="-" horiz-adv-x="757" 
d="M90 713h578v-242h-578v242z" />
    <glyph glyph-name="period" unicode="." horiz-adv-x="491" 
d="M111 319h270v-319h-270v319z" />
    <glyph glyph-name="slash" unicode="/" horiz-adv-x="679" 
d="M-6 -29l463 1520h229l-463 -1520h-229z" />
    <glyph glyph-name="zero" unicode="0" 
d="M332 770v-158q0 -187 14 -280.5t47 -130.5t99 -37q39 0 66 15.5t45.5 48t28.5 91.5t14.5 137.5t4.5 194.5v158q0 187 -14 280.5t-46.5 130.5t-98.5 37q-39 0 -66 -15.5t-46 -48t-29 -91.5t-14.5 -137.5t-4.5 -194.5zM37 676q0 101 2.5 170t12.5 157.5t28 147t51.5 120
t81 97.5t118.5 59t161 23q132 0 218.5 -37t139.5 -123.5t74.5 -216.5t21.5 -328q0 -78 -1.5 -133.5t-6.5 -126.5t-14 -120.5t-25.5 -107t-39.5 -97t-57.5 -78t-78 -61t-102 -36.5t-129.5 -14q-133 0 -219 37t-139.5 123.5t-75 216.5t-21.5 328z" />
    <glyph glyph-name="one" unicode="1" 
d="M668 0h-295v1024h-289v193h27q298 0 340 233h217v-1450z" />
    <glyph glyph-name="two" unicode="2" 
d="M930 229v-229h-893q0 188 76 334.5t243 300.5l119 110q94 86 123 151t29 181q0 180 -144 180q-43 0 -73.5 -15.5t-47.5 -38.5t-26.5 -63t-12.5 -76t-4 -89h-282v55q0 205 111 312.5t339 107.5q215 0 325 -102.5t110 -292.5q0 -141 -51 -245t-175 -216l-164 -152
q-123 -112 -149 -213h547z" />
    <glyph glyph-name="three" unicode="3" 
d="M41 424h283q3 -136 36.5 -198t124.5 -62q42 0 72 12.5t47 32.5t27 52t13 62.5t3 73.5q0 42 -4 75.5t-16.5 67t-32.5 55.5t-55 36t-82 14h-99v193h97q86 0 127 65t41 164q0 100 -34.5 145t-107.5 45q-46 0 -76.5 -16.5t-46 -50.5t-21 -73t-5.5 -95h-271q0 212 109.5 320
t316.5 108q201 0 309.5 -92.5t108.5 -280.5q0 -129 -58.5 -212.5t-162.5 -106.5v-4q258 -40 258 -342q0 -64 -11 -121t-43.5 -117.5t-83.5 -104t-139.5 -71t-203.5 -27.5q-207 0 -313.5 118t-106.5 329v6z" />
    <glyph glyph-name="four" unicode="4" 
d="M545 530v551h-4l-283 -551h287zM29 301v242l481 907h305v-920h139v-229h-139v-301h-270v301h-516z" />
    <glyph glyph-name="five" unicode="5" 
d="M870 1421v-229h-534l-31 -330h4q79 109 266 109q81 0 144 -26.5t102 -70t64 -105t35 -125t10 -136.5q0 -100 -12.5 -178t-44 -147.5t-83.5 -114.5t-133.5 -71t-191.5 -26q-77 0 -140 14t-106.5 37.5t-76.5 57t-52.5 68.5t-32 76.5t-16.5 77t-4 73.5v39h282
q0 -238 144 -238q88 0 130 70.5t42 212.5q0 180 -35 243.5t-135 63.5q-61 0 -96 -35t-43 -98h-265l54 788h755z" />
    <glyph glyph-name="six" unicode="6" 
d="M920 1081h-283q0 87 -31 131.5t-102 44.5q-46 0 -78.5 -18.5t-52 -49t-31 -79.5t-15 -100t-3.5 -121v-72h4q38 58 108.5 91.5t163.5 33.5q94 0 163.5 -33.5t110.5 -96t60.5 -142.5t19.5 -181q0 -518 -469 -518q-85 0 -153 19.5t-115 52.5t-81.5 84t-55 105.5t-32 127.5
t-15.5 139t-4 150q0 86 1 136.5t5.5 128.5t13.5 126t25.5 111t41 101t61.5 80.5t84.5 65t112 37.5t142.5 15q65 0 122 -11t109 -38t89.5 -68.5t60 -105.5t23.5 -146zM338 451q1 -69 7.5 -116t23 -88.5t49 -62t82.5 -20.5q42 0 71.5 15t46.5 38t26.5 62.5t12 78t2.5 93.5
q0 148 -36.5 211t-122.5 63q-88 0 -125 -63t-37 -211z" />
    <glyph glyph-name="seven" unicode="7" 
d="M45 1421h893v-225q-173 -243 -281 -557.5t-145 -638.5h-309q87 673 452 1167h-610v254z" />
    <glyph glyph-name="eight" unicode="8" 
d="M29 410q0 141 62.5 237.5t182.5 120.5v4q-73 19 -122 67.5t-67.5 101.5t-18.5 110q0 399 426 399t426 -399q0 -57 -18.5 -110t-68 -101.5t-122.5 -67.5v-4q120 -24 182.5 -120.5t62.5 -237.5q0 -58 -9 -110.5t-38.5 -115t-77.5 -107.5t-135 -75.5t-202 -30.5t-202 30.5
t-135.5 75.5t-78 107.5t-38.5 115t-9 110.5zM348 1059q0 -99 39 -151t105 -52t104.5 52t38.5 151q0 198 -143 198q-144 0 -144 -198zM324 414q0 -250 168 -250q48 0 82 19t52 55t25.5 78.5t7.5 97.5q0 56 -7.5 98.5t-25.5 78t-52 54.5t-82 19q-93 0 -130.5 -67t-37.5 -183z
" />
    <glyph glyph-name="nine" unicode="9" 
d="M63 338h283q0 -86 31 -130t102 -44q46 0 78.5 18.5t52 49t31 79.5t15 100t3.5 121v70h-4q-38 -57 -108.5 -90t-163.5 -33q-94 0 -163.5 33.5t-110.5 96t-60.5 142.5t-19.5 181q0 518 469 518q85 0 153 -19.5t115 -52.5t81.5 -84t55 -105.5t32 -127.5t15.5 -139t4 -150
q0 -86 -1 -137t-5.5 -129t-13.5 -125.5t-25.5 -111t-41 -101.5t-61.5 -80t-84.5 -64.5t-112 -37.5t-142.5 -15q-83 0 -151.5 18.5t-126.5 59.5t-91.5 114.5t-34.5 174.5zM324 971q0 -148 36.5 -211.5t122.5 -63.5q88 0 125 63.5t37 211.5q-1 54 -4.5 94t-14 78t-28 61.5
t-46.5 38t-69 14.5q-42 0 -71.5 -14.5t-46.5 -38t-26.5 -63t-12 -77.5t-2.5 -93z" />
    <glyph glyph-name="colon" unicode=":" horiz-adv-x="491" 
d="M111 0v319h270v-319h-270zM111 748v319h270v-319h-270z" />
    <glyph glyph-name="semicolon" unicode=";" horiz-adv-x="491" 
d="M111 319h270v-266q0 -69 -7 -122.5t-25 -102.5t-48 -82.5t-78 -55.5t-112 -28v143q51 9 78.5 55t27.5 107v33h-106v319zM111 1067h270v-319h-270v319z" />
    <glyph glyph-name="less" unicode="&#x3c;" horiz-adv-x="1228" 
d="M96 410v217l1037 426v-254l-693 -281l693 -280v-254z" />
    <glyph glyph-name="equal" unicode="=" horiz-adv-x="1228" 
d="M96 614v254h1037v-254h-1037zM96 168v254h1037v-254h-1037z" />
    <glyph glyph-name="greater" unicode="&#x3e;" horiz-adv-x="1228" 
d="M96 -16v254l692 280l-692 281v254l1037 -426v-217z" />
    <glyph glyph-name="question" unicode="?" horiz-adv-x="985" 
d="M344 1010h-270v47q0 191 104 306.5t301 115.5q211 0 321.5 -106t110.5 -290q0 -87 -29 -163t-100 -156l-82 -92q-56 -63 -78 -112t-22 -124v-30h-254v79q0 101 28.5 172t98.5 150l78 88q78 86 78 217q0 80 -36 127t-104 47q-145 0 -145 -225v-51zM332 270h282v-270h-282
v270z" />
    <glyph glyph-name="at" unicode="@" horiz-adv-x="1638" 
d="M612 668q0 -69 41 -117.5t105 -48.5q99 0 168 82.5t69 179.5q0 64 -45 110t-108 46q-94 0 -162 -81t-68 -171zM1069 999l27 109h180l-119 -512q-12 -56 -12 -84q0 -41 41 -41q31 0 67.5 26t69 70.5t54.5 113.5t22 146q0 132 -77 241.5t-201.5 169.5t-266.5 60
q-118 0 -224 -47.5t-180 -126t-117.5 -182t-43.5 -213.5q0 -152 79.5 -283t213 -206.5t286.5 -75.5q231 0 445 131h182q-226 -324 -676 -324q-155 0 -295.5 60t-242.5 162t-162 242.5t-60 295.5t60 295.5t162 242.5t242.5 162t295.5 60q153 0 291.5 -45t242.5 -124.5
t165 -197t61 -254.5q0 -123 -41 -226t-101.5 -167.5t-133.5 -109.5t-133.5 -63.5t-104.5 -18.5q-59 0 -94 27.5t-39 80.5h-4q-100 -108 -246 -108q-116 0 -207.5 96.5t-91.5 251.5q0 127 52.5 241t154.5 188.5t231 74.5q163 0 248 -138z" />
    <glyph glyph-name="A" unicode="A" horiz-adv-x="1138" 
d="M0 0l387 1462h365l387 -1462h-308l-67 309h-389l-68 -309h-307zM567 1208l-141 -657h287l-142 657h-4z" />
    <glyph glyph-name="B" unicode="B" horiz-adv-x="1138" 
d="M102 0v1462h494q95 0 168 -19t130 -60.5t87.5 -114.5t30.5 -176q0 -121 -57 -205.5t-164 -114.5v-4q123 -18 194.5 -107t71.5 -233q0 -71 -14 -132.5t-48 -117t-85.5 -94t-130.5 -61.5t-179 -23h-498zM397 1245v-383h84q123 0 179.5 45.5t56.5 147.5t-51 146t-162 44
h-107zM397 657v-440h115q114 0 176 50t62 171q0 120 -60 169.5t-166 49.5h-127z" />
    <glyph glyph-name="C" unicode="C" horiz-adv-x="1099" 
d="M1022 969h-295q0 163 -39 234t-137 71q-110 0 -147 -121.5t-37 -441.5q0 -164 11 -268t36 -159.5t57.5 -75.5t83.5 -20q44 0 74.5 14.5t57 52.5t39.5 114t13 190h295q0 -72 -5.5 -132.5t-19.5 -121.5t-36.5 -110t-58.5 -91.5t-83.5 -71t-114 -45t-147.5 -16.5
q-82 0 -148.5 14t-116 43t-87 66t-63 91t-42 110t-25 130.5t-12 145t-3.5 160.5t3.5 160.5t12 145t25 130.5t42 110t63 91t87 66t116 43t148.5 14q88 0 158 -18.5t116.5 -47t80.5 -73.5t52.5 -87.5t29 -99.5t13.5 -99.5t3 -96.5z" />
    <glyph glyph-name="D" unicode="D" horiz-adv-x="1175" 
d="M117 0v1462h483q87 0 156 -17t119 -48t87 -79.5t60 -105t37 -132.5t19 -153t5 -175q0 -202 -23.5 -337.5t-80.5 -231.5t-154 -139.5t-243 -43.5h-465zM412 1245v-1028h131q62 0 104 17.5t70.5 52.5t43.5 100.5t21 147.5t6 208q0 91 -3 153t-12 123.5t-26 99.5t-44.5 68.5
t-68.5 44t-97 13.5h-125z" />
    <glyph glyph-name="E" unicode="E" horiz-adv-x="985" 
d="M102 1462h818v-241h-523v-344h492v-242h-492v-393h543v-242h-838v1462z" />
    <glyph glyph-name="F" unicode="F" horiz-adv-x="948" 
d="M102 0v1462h818v-241h-523v-344h492v-242h-492v-635h-295z" />
    <glyph glyph-name="G" unicode="G" horiz-adv-x="1138" 
d="M1034 1028h-282q0 59 -16.5 112.5t-56 93.5t-95.5 40q-107 0 -154 -119t-47 -393q0 -143 8 -240t29.5 -177t62.5 -118.5t103 -38.5t122 63t60 171v149h-195v217h478v-788h-217v135h-5q-100 -164 -307 -164q-90 0 -158 21.5t-115.5 68t-79 108.5t-49.5 153.5t-25 191.5
t-7 234q0 191 24 325t80.5 230t152 142t235.5 46q237 0 345.5 -117t108.5 -346z" />
    <glyph glyph-name="H" unicode="H" horiz-adv-x="1138" 
d="M102 0v1462h295v-559h344v559h295v-1462h-295v649h-344v-649h-295z" />
    <glyph glyph-name="I" unicode="I" horiz-adv-x="528" 
d="M412 0h-295v1462h295v-1462z" />
    <glyph glyph-name="J" unicode="J" horiz-adv-x="948" 
d="M563 1462h295v-1052q0 -231 -106.5 -335t-333.5 -104q-91 0 -159.5 23t-111 61.5t-69.5 94.5t-37 116t-10 133v64h270v-45q0 -123 27.5 -176.5t103.5 -53.5t103.5 53.5t27.5 176.5v1044z" />
    <glyph glyph-name="K" unicode="K" horiz-adv-x="1099" 
d="M102 1462h295v-585h4l373 585h320l-398 -626l443 -836h-332l-301 600l-109 -166v-434h-295v1462z" />
    <glyph glyph-name="L" unicode="L" horiz-adv-x="948" 
d="M920 0h-818v1462h295v-1220h523v-242z" />
    <glyph glyph-name="M" unicode="M" horiz-adv-x="1515" 
d="M109 0v1462h438l209 -1032h4l211 1032h436v-1462h-270v1167h-4l-261 -1167h-229l-260 1167h-4v-1167h-270z" />
    <glyph glyph-name="N" unicode="N" horiz-adv-x="1175" 
d="M102 1462h340l357 -1001h4v1001h270v-1462h-336l-360 1024h-4v-1024h-271v1462z" />
    <glyph glyph-name="O" unicode="O" horiz-adv-x="1138" 
d="M72 731q0 90 3.5 160.5t12 145t25 130.5t42 110t63 91t87 66t116 43t148.5 14q93 0 166.5 -19.5t125.5 -53t89.5 -88t60 -113.5t35 -142t17 -161.5t4.5 -182.5t-4.5 -182.5t-17 -161.5t-35 -142t-60 -113.5t-89.5 -88t-125.5 -53t-166.5 -19.5q-82 0 -148.5 14t-116 43
t-87 66t-63 91t-42 110t-25 130.5t-12 145t-3.5 160.5zM367 731q0 -105 3 -177.5t11 -137.5t22 -104.5t36.5 -69t54 -42t75.5 -12.5t75.5 12.5t54.5 42t37 69t22 104.5t11 137.5t3 177.5q0 104 -3 176.5t-11 137.5t-22 105t-37 69.5t-54.5 42t-75.5 12.5t-75.5 -12.5
t-54 -42t-36.5 -69.5t-22 -105t-11 -137.5t-3 -176.5z" />
    <glyph glyph-name="P" unicode="P" horiz-adv-x="1062" 
d="M102 0v1462h516q87 0 156.5 -24.5t114.5 -66t75 -99t43 -119t13 -129.5q0 -220 -124 -330t-341 -110h-158v-584h-295zM397 1245v-444h131q91 0 144 55t53 164q0 111 -49 168t-156 57h-123z" />
    <glyph glyph-name="Q" unicode="Q" horiz-adv-x="1138" 
d="M1112 -23l-174 -157l-174 180q-49 -18 -90 -23q-46 -6 -105 -6q-82 0 -148.5 14t-116 43t-87 66t-63 91t-42 110t-25 130.5t-12 145t-3.5 160.5t3.5 160.5t12 145t25 130.5t42 110t63 91t87 66t116 43t148.5 14q93 0 166.5 -19.5t125.5 -53t89.5 -88t60 -113.5t35 -142
t17 -161.5t4.5 -182.5q0 -212 -23 -355t-90 -239zM367 731q0 -105 3 -177.5t11 -137.5t22 -104.5t36.5 -69t54 -42t75.5 -12.5t75.5 12.5t54.5 42t37 69t22 104.5t11 137.5t3 177.5q0 104 -3 176.5t-11 137.5t-22 105t-37 69.5t-54.5 42t-75.5 12.5t-75.5 -12.5t-54 -42
t-36.5 -69.5t-22 -105t-11 -137.5t-3 -176.5z" />
    <glyph glyph-name="R" unicode="R" horiz-adv-x="1138" 
d="M397 1245v-422h123q109 0 165 52t56 167q0 203 -204 203h-140zM102 0v1462h545q184 0 286.5 -96t102.5 -281q0 -149 -60.5 -241.5t-182.5 -118.5v-4q61 -8 101.5 -28t67 -51t40.5 -86t19.5 -118.5t6.5 -163.5q2 -126 14.5 -183.5t51.5 -78.5v-12h-320q-33 47 -37 154
l-8 280q-6 184 -174 184h-158v-618h-295z" />
    <glyph glyph-name="S" unicode="S" horiz-adv-x="1062" 
d="M45 457h295v-43q0 -112 42.5 -169t152.5 -57q73 0 124.5 47t51.5 134q0 97 -55 146.5t-207 102.5q-204 70 -293.5 168t-89.5 275q0 210 119.5 320t332.5 110q101 0 182 -22.5t142.5 -68.5t95 -122.5t33.5 -179.5v-41h-283q0 217 -160 217q-168 0 -168 -170
q0 -72 31.5 -116.5t120.5 -82.5l227 -98q159 -69 219 -158t60 -229q0 -227 -131.5 -338t-376.5 -111q-243 0 -354 108t-111 318v60z" />
    <glyph glyph-name="T" unicode="T" 
d="M25 1462h933v-241h-319v-1221h-295v1221h-319v241z" />
    <glyph glyph-name="U" unicode="U" horiz-adv-x="1101" 
d="M84 1462h295v-1020q0 -58 8 -101.5t26.5 -79.5t53 -54.5t84.5 -18.5t84.5 18.5t53 54.5t26.5 79.5t8 101.5v1020h295v-1020q0 -108 -26 -191.5t-69 -135.5t-104.5 -85t-126.5 -46t-141 -13q-78 0 -141.5 11t-126 42.5t-105 82.5t-68.5 136t-26 199v1020z" />
    <glyph glyph-name="V" unicode="V" horiz-adv-x="1062" 
d="M6 1462h316l206 -1081h7l217 1081h305l-336 -1462h-379z" />
    <glyph glyph-name="W" unicode="W" horiz-adv-x="1556" 
d="M283 0l-267 1462h283l162 -1081h4l172 1081h283l172 -1081h4l161 1081h283l-266 -1462h-330l-164 1061h-4l-164 -1061h-329z" />
    <glyph glyph-name="X" unicode="X" horiz-adv-x="1099" 
d="M377 739l-336 723h326l188 -473l186 473h322l-340 -723l364 -739h-331l-211 496l-209 -496h-324z" />
    <glyph glyph-name="Y" unicode="Y" horiz-adv-x="1064" 
d="M6 1462h332l192 -565h5l204 565h320l-379 -887v-575h-295v575z" />
    <glyph glyph-name="Z" unicode="Z" horiz-adv-x="985" 
d="M49 0v215l539 1006h-502v241h842v-223l-547 -997h555v-242h-887z" />
    <glyph glyph-name="bracketleft" unicode="[" horiz-adv-x="645" 
d="M164 -377v1839h469v-205h-215v-1429h215v-205h-469z" />
    <glyph glyph-name="backslash" unicode="\" horiz-adv-x="679" 
d="M457 -29l-463 1520h229l463 -1520h-229z" />
    <glyph glyph-name="bracketright" unicode="]" horiz-adv-x="645" 
d="M12 -377v205h215v1429h-215v205h469v-1839h-469z" />
    <glyph glyph-name="asciicircum" unicode="^" horiz-adv-x="1228" 
d="M369 633h-254l385 788h229l385 -788h-254l-246 506z" />
    <glyph glyph-name="underscore" unicode="_" horiz-adv-x="1024" 
d="M1024 -256h-1024v102h1024v-102z" />
    <glyph glyph-name="grave" unicode="`" horiz-adv-x="454" 
d="M360 1231h-192l-201 295h283z" />
    <glyph glyph-name="a" unicode="a" horiz-adv-x="985" 
d="M346 764h-254v27q0 92 30 159.5t84.5 105.5t122 56t150.5 18q99 0 170.5 -16.5t115.5 -44.5t70 -72t35 -92t9 -112v-580q0 -80 6.5 -123.5t27.5 -89.5h-270q-17 34 -35 115h-4q-48 -83 -111 -113.5t-169 -30.5q-57 0 -103 19t-76 50t-50.5 72.5t-29 85t-8.5 89.5
q0 151 64.5 227t214.5 117l160 43q63 17 87.5 45.5t24.5 83.5q0 135 -131 135q-63 0 -97 -38.5t-34 -104.5v-31zM608 334v217q-53 -39 -121 -55q-85 -18 -122 -61t-37 -118q0 -68 26 -110.5t80 -42.5q66 0 120 43.5t54 126.5z" />
    <glyph glyph-name="b" unicode="b" horiz-adv-x="1024" 
d="M377 551q0 -97 6 -159.5t21.5 -111t45.5 -70.5t76 -22q45 0 74.5 22t45.5 70.5t22 111.5t6 159t-6 159t-22 111t-45 70t-75 22q-37 0 -63.5 -15t-43 -42.5t-26 -74t-13 -100t-3.5 -130.5zM94 0v1462h283v-463h4q45 67 102 99t135 32q175 0 256.5 -137t81.5 -442
t-81.5 -442.5t-256.5 -137.5q-84 0 -143.5 35t-105.5 111h-4v-117h-271z" />
    <glyph glyph-name="c" unicode="c" horiz-adv-x="948" 
d="M895 705h-270q0 221 -127 221q-51 0 -83.5 -22t-49.5 -72.5t-23 -115t-6 -167.5q0 -215 30 -300t121 -85q71 0 104.5 62.5t33.5 195.5h270q0 -223 -100.5 -337t-319.5 -114q-110 0 -186 28.5t-130.5 95.5t-80 179t-25.5 277q0 133 22 234t60 166t95.5 105.5t122.5 57
t147 16.5q192 0 293.5 -113t101.5 -312z" />
    <glyph glyph-name="d" unicode="d" horiz-adv-x="1024" 
d="M350 551q0 -96 6 -159t22 -111.5t45.5 -70.5t74.5 -22q46 0 76 22t45.5 70.5t21.5 111t6 159.5q0 77 -3.5 130.5t-13 100t-26 74t-43 42.5t-63.5 15q-46 0 -75 -22t-45 -70t-22 -111t-6 -159zM659 0v117h-4q-46 -76 -105.5 -111t-143.5 -35q-175 0 -256.5 137.5
t-81.5 442.5t81.5 442t256.5 137q78 0 135 -32t102 -99h4v463h283v-1462h-271z" />
    <glyph glyph-name="e" unicode="e" horiz-adv-x="948" 
d="M895 508h-559v-88q0 -109 33.5 -182.5t105.5 -73.5q68 0 103 51t47 156h254q-16 -400 -400 -400q-67 0 -122.5 12t-96.5 30.5t-73.5 50t-54 62.5t-37 76.5t-23.5 83t-12.5 91t-5.5 91.5t-1 93q0 98 8.5 173.5t36.5 153t74.5 128t127.5 82.5t192 32q97 0 168.5 -26.5
t116 -72.5t71.5 -118t37 -153t10 -189v-63zM336 676h289q-5 139 -33.5 200.5t-110.5 61.5q-40 0 -70 -19.5t-45.5 -52.5t-22.5 -69.5t-7 -77.5v-43z" />
    <glyph glyph-name="f" unicode="f" horiz-adv-x="606" 
d="M156 0v909h-144v193h144v125q0 143 75 203.5t220 60.5q75 0 151 -6v-201q-18 2 -55 2q-60 0 -84.5 -20t-24.5 -68v-96h164v-193h-164v-909h-282z" />
    <glyph glyph-name="g" unicode="g" horiz-adv-x="1024" 
d="M649 1102h271v-1047q0 -222 -107.5 -327t-351.5 -105q-180 0 -277.5 77t-97.5 218h270q0 -55 43 -84q47 -31 95 -31q155 0 155 199v145h-4q-43 -62 -105.5 -98.5t-129.5 -36.5q-173 0 -255.5 130.5t-82.5 426.5q0 61 3 112.5t12 111t24.5 106t42 91.5t62 74.5t87 47.5
t115.5 18q67 0 128.5 -35.5t98.5 -115.5h4v123zM354 516q0 -63 5.5 -110t20.5 -89.5t44 -65t72 -22.5q84 0 118.5 82t34.5 234q0 204 -31.5 286t-115.5 82q-91 0 -119.5 -83t-28.5 -314z" />
    <glyph glyph-name="h" unicode="h" horiz-adv-x="1024" 
d="M94 0v1462h283v-473h4q79 141 268 141q136 0 208.5 -77t72.5 -236v-817h-283v760q0 82 -28.5 117.5t-92.5 35.5q-149 0 -149 -182v-731h-283z" />
    <glyph glyph-name="i" unicode="i" horiz-adv-x="491" 
d="M104 0v1102h283v-1102h-283zM104 1237v242h283v-242h-283z" />
    <glyph glyph-name="j" unicode="j" horiz-adv-x="491" 
d="M104 20v1082h283v-1178q0 -72 -15 -122.5t-51.5 -88t-100 -55.5t-157.5 -18q-32 0 -114 4v204q14 -4 45 -4q70 0 90 38t20 138zM104 1237v242h283v-242h-283z" />
    <glyph glyph-name="k" unicode="k" horiz-adv-x="1024" 
d="M104 1462h283v-772h4l285 412h311l-317 -434l364 -668h-311l-236 453l-100 -131v-322h-283v1462z" />
    <glyph glyph-name="l" unicode="l" horiz-adv-x="491" 
d="M104 0v1462h283v-1462h-283z" />
    <glyph glyph-name="m" unicode="m" horiz-adv-x="1552" 
d="M94 0v1102h271v-113h4q53 74 120.5 107.5t157.5 33.5q97 0 164 -46t90 -130h4q32 86 104.5 131t174.5 45q274 0 274 -329v-801h-282v770q0 71 -26.5 107t-84.5 36q-69 0 -108 -47.5t-39 -140.5v-725h-283v770q0 71 -26.5 107t-84.5 36q-69 0 -108 -47.5t-39 -140.5v-725
h-283z" />
    <glyph glyph-name="n" unicode="n" horiz-adv-x="1024" 
d="M94 0v1102h271v-129h4q85 157 280 157q136 0 208.5 -77t72.5 -236v-817h-283v760q0 82 -28.5 117.5t-92.5 35.5q-149 0 -149 -182v-731h-283z" />
    <glyph glyph-name="o" unicode="o" 
d="M57 551q0 294 100 436.5t335 142.5q126 2 211 -33t133.5 -111.5t69 -180.5t20.5 -254q0 -294 -99.5 -437t-334.5 -143q-126 -2 -211 33.5t-134 112t-69.5 180.5t-20.5 254zM340 551q0 -64 1.5 -108t7 -92t15.5 -79t26.5 -57t42 -38.5t59.5 -12.5q85 0 118 88.5t33 298.5
t-33 298.5t-118 88.5q-34 0 -59.5 -12.5t-42 -38.5t-26.5 -57t-15.5 -79t-7 -92t-1.5 -108z" />
    <glyph glyph-name="p" unicode="p" horiz-adv-x="1024" 
d="M377 551q0 -97 6 -159.5t21.5 -111t45.5 -70.5t76 -22q45 0 74.5 22t45.5 70.5t22 111.5t6 159t-6 159t-22 111t-45 70t-75 22q-37 0 -63.5 -15t-43 -42.5t-26 -74t-13 -100t-3.5 -130.5zM94 -360v1462h271v-117h4q45 76 105 110.5t144 34.5q175 0 256.5 -137t81.5 -442
t-81.5 -442.5t-256.5 -137.5q-78 0 -135 32t-102 99h-4v-462h-283z" />
    <glyph glyph-name="q" unicode="q" horiz-adv-x="1024" 
d="M647 551q0 77 -3.5 130.5t-13 100t-26 74t-43 42.5t-63.5 15q-46 0 -75 -22t-45 -70t-22 -111t-6 -159t6 -159t22 -111.5t45.5 -70.5t74.5 -22q46 0 76 22t45.5 70.5t21.5 111t6 159.5zM647 -360v462h-4q-45 -67 -102 -99t-135 -32q-175 0 -256.5 137.5t-81.5 442.5
t81.5 442t256.5 137q84 0 144 -34.5t105 -110.5h4v117h271v-1462h-283z" />
    <glyph glyph-name="r" unicode="r" horiz-adv-x="681" 
d="M94 0v1102h271v-148h4q95 176 254 176q19 0 51 -4v-270q-58 4 -88 4q-85 0 -147 -48.5t-62 -149.5v-662h-283z" />
    <glyph glyph-name="s" unicode="s" horiz-adv-x="909" 
d="M47 360h254v-36q0 -73 38.5 -116.5t109.5 -43.5q66 0 104.5 33.5t38.5 97.5q0 88 -103 125l-198 72q-119 42 -177.5 117t-58.5 190q0 70 23 128.5t70.5 104.5t127 72t185.5 26q189 0 283 -80.5t94 -232.5v-45h-254q0 85 -29 125.5t-96 40.5q-57 0 -95 -31.5t-38 -87.5
q0 -88 123 -129l169 -57q132 -44 188 -117t56 -199q0 -168 -112 -257t-297 -89q-116 0 -196.5 24.5t-125.5 72.5t-64.5 109.5t-19.5 144.5v38z" />
    <glyph glyph-name="t" unicode="t" horiz-adv-x="606" 
d="M156 1102v315h282v-315h164v-193h-164v-596q0 -67 20.5 -93.5t80.5 -26.5q27 0 63 4v-197q-122 -12 -184 -12q-84 0 -134.5 13.5t-79.5 49.5t-38.5 87.5t-9.5 140.5v630h-144v193h144z" />
    <glyph glyph-name="u" unicode="u" horiz-adv-x="1024" 
d="M659 0v129h-4q-86 -158 -280 -158q-135 0 -208 77.5t-73 236.5v817h283v-760q0 -82 28.5 -118t92.5 -36q149 0 149 183v731h283v-1102h-271z" />
    <glyph glyph-name="v" unicode="v" horiz-adv-x="909" 
d="M467 313l149 789h283l-276 -1102h-328l-285 1102h295l158 -789h4z" />
    <glyph glyph-name="w" unicode="w" horiz-adv-x="1441" 
d="M254 0l-240 1102h283l129 -783h4l137 783h307l146 -783h4l133 783h270l-237 -1102h-322l-145 782h-4l-137 -782h-328z" />
    <glyph glyph-name="x" unicode="x" horiz-adv-x="946" 
d="M473 770l152 332h295l-287 -535l299 -567h-295l-164 360l-164 -360h-295l299 567l-286 535h295z" />
    <glyph glyph-name="y" unicode="y" horiz-adv-x="909" 
d="M94 -360v210q37 -6 74 -6q75 0 110 39.5t41 116.5l-309 1102h295l164 -762h4l143 762h283l-266 -1028q-26 -100 -47 -165t-48.5 -116.5t-54.5 -79t-69.5 -45t-88.5 -23t-116 -5.5h-115z" />
    <glyph glyph-name="z" unicode="z" horiz-adv-x="872" 
d="M49 0v217l440 655h-419v230h753v-217l-440 -656h440v-229h-774z" />
    <glyph glyph-name="braceleft" unicode="{" horiz-adv-x="645" 
d="M61 459v168q53 0 94.5 48t41.5 118v395q0 131 54.5 202.5t158.5 71.5h182v-205h-62q-45 0 -62 -39.5t-17 -107.5v-340q0 -90 -41 -151.5t-107 -73.5v-4q66 -12 107 -74t41 -152v-340q0 -68 17 -107.5t62 -39.5h62v-205h-182q-103 0 -158 71.5t-55 203.5v395
q0 70 -41.5 118t-94.5 48z" />
    <glyph glyph-name="bar" unicode="|" horiz-adv-x="454" 
d="M100 -29v1520h254v-1520h-254z" />
    <glyph glyph-name="braceright" unicode="}" horiz-adv-x="645" 
d="M53 -377v205h62q80 0 80 147v340q0 90 40.5 152t106.5 74v4q-66 12 -106.5 73.5t-40.5 151.5v340q0 147 -80 147h-62v205h183q104 0 158.5 -71.5t54.5 -202.5v-395q0 -70 41 -118t94 -48v-168q-53 0 -94 -48t-41 -118v-395q0 -132 -55 -203.5t-158 -71.5h-183z" />
    <glyph glyph-name="asciitilde" unicode="~" horiz-adv-x="1228" 
d="M1014 715l73 -217q-93 -176 -251 -176q-64 0 -119 17t-123 52q-87 44 -124 57t-71 13q-55 0 -109 -46.5t-75 -92.5l-74 217q93 176 252 176q106 0 223 -60q93 -48 133 -64t80 -16q55 0 109.5 47t75.5 93z" />
    <glyph glyph-name="uni00A0" unicode="&#xa0;" horiz-adv-x="491" 
 />
    <glyph glyph-name="exclamdown" unicode="&#xa1;" horiz-adv-x="606" 
d="M162 -360v475l39 579h205l38 -579v-475h-282zM162 831v271h282v-271h-282z" />
    <glyph glyph-name="cent" unicode="&#xa2;" 
d="M455 176v750q-63 -23 -84 -110t-21 -261q0 -53 0.5 -83.5t3.5 -78.5t9.5 -77.5t18 -62t30 -51.5t43.5 -26zM455 -209v180q-70 3 -124.5 19.5t-105 55.5t-84 101.5t-53.5 162.5t-20 233q0 100 8.5 177.5t34 153.5t67.5 127.5t112 86.5t165 42v156h106v-156
q58 -4 105 -15.5t94.5 -40.5t80 -73t53 -117.5t21.5 -170.5h-270q0 182 -84 213v-750q37 22 57 70.5t23.5 87.5t3.5 94h270q0 -207 -85 -321.5t-269 -135.5v-180h-106z" />
    <glyph glyph-name="sterling" unicode="&#xa3;" 
d="M18 627v168h138q-93 181 -93 290q0 161 113 263t326 102q215 0 328.5 -102.5t117.5 -321.5h-270q0 104 -38 167.5t-122 63.5q-90 0 -131 -46t-41 -115q0 -28 13.5 -80t39.5 -105l58 -116h342v-168h-289q10 -25 10 -80q0 -90 -41.5 -163t-142.5 -157l8 -4q52 15 92 15
q27 0 112 -31t122 -31q35 0 92 22t121 64l90 -192q-154 -99 -305 -99q-45 0 -176.5 37t-196.5 37q-50 0 -94 -13t-107 -44l-84 176q109 70 174.5 165.5t65.5 196.5q0 44 -23 101h-209z" />
    <glyph glyph-name="currency" unicode="&#xa4;" 
d="M125 219l-125 127l102 103q-79 119 -79 262q0 144 79 262l-102 102l125 127l104 -102q119 80 263 80q141 0 262 -80l104 102l125 -127l-102 -102q80 -119 80 -262t-80 -262l102 -103l-125 -127l-104 105q-119 -82 -262 -82q-145 0 -263 82zM240 711q0 -122 68.5 -193.5
t183.5 -71.5t183 71.5t68 193.5t-68 193t-183 71t-183.5 -71t-68.5 -193z" />
    <glyph glyph-name="yen" unicode="&#xa5;" 
d="M365 0v326h-291v168h291v88l-23 47h-268v168h188l-297 624h305l219 -551h5l229 551h295l-297 -624h188v-168h-268l-23 -47v-88h291v-168h-291v-326h-253z" />
    <glyph glyph-name="brokenbar" unicode="&#xa6;" horiz-adv-x="454" 
d="M100 -29v555h254v-555h-254zM100 936v555h254v-555h-254z" />
    <glyph glyph-name="section" unicode="&#xa7;" horiz-adv-x="985" 
d="M78 76h270v-31q0 -75 40.5 -119.5t103.5 -44.5q67 0 101 40t34 97q0 58 -30 97.5t-101 74.5l-252 121q-217 106 -217 316q0 95 49.5 172.5t134.5 120.5q-123 91 -123 233q0 89 32.5 155.5t90.5 105.5t132.5 58t164.5 19q200 0 294.5 -89t94.5 -243h-270q0 62 -29 101
q-28 38 -113 38q-57 0 -92 -33t-35 -83q0 -81 131 -142l244 -114q225 -106 225 -334q0 -81 -44.5 -165t-114.5 -126q110 -86 110 -254q0 -180 -108 -269t-309 -89q-206 0 -310 94.5t-104 261.5v31zM338 557l203 -111q39 -22 80 -51q96 79 96 154q0 53 -30.5 90t-108.5 78
l-197 104q-113 -68 -113 -153q0 -31 18.5 -62t51.5 -49z" />
    <glyph glyph-name="dieresis" unicode="&#xa8;" horiz-adv-x="454" 
d="M-63 1249v242h229v-242h-229zM289 1249v242h229v-242h-229z" />
    <glyph glyph-name="copyright" unicode="&#xa9;" horiz-adv-x="1638" 
d="M1014 610h205q-22 -148 -127.5 -233.5t-241.5 -85.5q-127 0 -224.5 60t-148.5 161t-51 225q0 194 113 320.5t305 126.5q142 0 244 -82.5t122 -231.5h-196q-16 63 -61.5 100.5t-118.5 37.5q-103 0 -159.5 -75t-56.5 -196q0 -115 58.5 -192.5t154.5 -77.5q75 0 124.5 39
t58.5 104zM289 731q0 -147 68 -271.5t190.5 -198t271.5 -73.5t271.5 73.5t191 198t68.5 271.5t-68.5 271.5t-191 198t-271.5 73.5t-271.5 -73.5t-190.5 -198t-68 -271.5zM59 731q0 155 60 295.5t162 242.5t242.5 162t295.5 60t295.5 -60t242.5 -162t162 -242.5t60 -295.5
t-60 -295.5t-162 -242.5t-242.5 -162t-295.5 -60t-295.5 60t-242.5 162t-162 242.5t-60 295.5z" />
    <glyph glyph-name="ordfeminine" unicode="&#xaa;" horiz-adv-x="643" 
d="M600 1247v-352q0 -77 23 -129h-205q-8 16 -23 72q-33 -51 -75 -68.5t-117 -17.5q-94 0 -138.5 55.5t-44.5 132.5q0 94 42.5 141t140.5 68l119 25q40 9 56.5 25.5t16.5 43.5q0 35 -19.5 55.5t-56.5 20.5q-40 0 -61.5 -22.5t-21.5 -57.5v-18h-193v26q0 203 281 203
q86 0 142.5 -14t84.5 -43.5t38.5 -63t10.5 -82.5zM395 979v121q-34 -24 -71 -31q-53 -10 -76 -34t-23 -66q0 -38 16.5 -62t49.5 -24q40 0 72 24t32 72z" />
    <glyph glyph-name="guillemotleft" unicode="&#xab;" horiz-adv-x="872" 
d="M461 426v332l305 246v-271l-162 -141l162 -141v-271zM106 426v332l306 246v-271l-162 -141l162 -141v-271z" />
    <glyph glyph-name="logicalnot" unicode="&#xac;" horiz-adv-x="1228" 
d="M879 201v413h-783v254h1037v-667h-254z" />
    <glyph glyph-name="uni00AD" unicode="&#xad;" horiz-adv-x="757" 
d="M90 713h578v-242h-578v242z" />
    <glyph glyph-name="registered" unicode="&#xae;" horiz-adv-x="1638" 
d="M522 322v819h320q158 0 236.5 -65.5t78.5 -188.5q0 -97 -57 -157t-146 -71l203 -337h-196l-193 329h-66v-329h-180zM702 997v-202h138q68 0 102.5 20.5t34.5 81.5q0 32 -14 53.5t-39.5 30.5t-48.5 12.5t-54 3.5h-119zM59 731q0 155 60 295.5t162 242.5t242.5 162
t295.5 60t295.5 -60t242.5 -162t162 -242.5t60 -295.5t-60 -295.5t-162 -242.5t-242.5 -162t-295.5 -60t-295.5 60t-242.5 162t-162 242.5t-60 295.5zM289 731q0 -147 68 -271.5t190.5 -198t271.5 -73.5t271.5 73.5t191 198t68.5 271.5t-68.5 271.5t-191 198t-271.5 73.5
t-271.5 -73.5t-190.5 -198t-68 -271.5z" />
    <glyph glyph-name="macron" unicode="&#xaf;" horiz-adv-x="454" 
d="M-74 1462h602v-155h-602v155z" />
    <glyph glyph-name="degree" unicode="&#xb0;" horiz-adv-x="819" 
d="M106 1147q0 126 89 214.5t215 88.5t214.5 -88.5t88.5 -214.5t-88.5 -214.5t-214.5 -88.5t-215 88.5t-89 214.5zM262 1147q0 -61 43 -104.5t105 -43.5q61 0 104 43t43 105q0 61 -42.5 104t-104.5 43t-105 -43t-43 -104z" />
    <glyph glyph-name="plusminus" unicode="&#xb1;" horiz-adv-x="1228" 
d="M487 815v221h254v-221h392v-254h-392v-221h-254v221h-391v254h391zM96 0v254h1037v-254h-1037z" />
    <glyph glyph-name="twosuperior" unicode="&#xb2;" horiz-adv-x="638" 
d="M639 573h-639q0 120 48 212.5t159 172.5l102 74q57 42 79 79.5t22 86.5q0 41 -24.5 68.5t-63.5 27.5q-100 0 -105 -149h-217v51q0 126 78 190t250 64q157 0 234 -58.5t77 -162.5q0 -88 -29 -147t-106 -119l-117 -91q-94 -71 -108 -131h360v-168z" />
    <glyph glyph-name="threesuperior" unicode="&#xb3;" horiz-adv-x="638" 
d="M0 852h217q4 -137 100 -137q47 0 70 30t23 78q0 129 -123 129h-58v144h58q56 0 83 31t27 77q0 39 -23.5 64.5t-60.5 25.5q-94 0 -94 -123h-205q0 140 74 211q71 68 223 68q153 0 228 -54t75 -169q0 -79 -37.5 -130t-105.5 -65v-4q168 -28 168 -205q0 -264 -346 -264
q-149 0 -221 70.5t-72 201.5v21z" />
    <glyph glyph-name="acute" unicode="&#xb4;" horiz-adv-x="454" 
d="M94 1231l111 295h282l-200 -295h-193z" />
    <glyph glyph-name="mu" unicode="&#xb5;" horiz-adv-x="1024" 
d="M647 371v731h283v-1102h-271v129h-4q-42 -77 -102 -117.5t-115 -40.5q-36 0 -61 17v-348h-283v1462h283v-760q0 -82 28.5 -118t92.5 -36q149 0 149 183z" />
    <glyph glyph-name="paragraph" unicode="&#xb6;" 
d="M373 -283v969q-181 0 -276 98t-95 283q0 114 28.5 193t84.5 122.5t126.5 61.5t166.5 18h548v-1745h-217v1553h-149v-1553h-217z" />
    <glyph glyph-name="periodcentered" unicode="&#xb7;" horiz-adv-x="491" 
d="M47 578q0 83 58 140.5t141 57.5t140.5 -57.5t57.5 -140.5t-57.5 -141t-140.5 -58t-141 58t-58 141z" />
    <glyph glyph-name="cedilla" unicode="&#xb8;" horiz-adv-x="454" 
d="M190 0h111l-78 -125q42 10 68 10q65 0 118.5 -41.5t53.5 -109.5q0 -90 -67.5 -141.5t-190.5 -51.5q-63 0 -120 12t-85 27l39 94q22 -12 63 -21t78 -9q43 0 73 20t30 49q0 31 -24.5 50.5t-65.5 19.5q-35 0 -70 -12l-45 41z" />
    <glyph glyph-name="onesuperior" unicode="&#xb9;" horiz-adv-x="638" 
d="M236 573v594h-187v144h17q196 0 223 139h176v-877h-229z" />
    <glyph glyph-name="ordmasculine" unicode="&#xba;" horiz-adv-x="643" 
d="M25 1100q0 179 67 264.5t230 85.5q87 1 145.5 -19.5t91 -67t46 -109t13.5 -154.5q0 -178 -66.5 -263t-229.5 -85q-169 -3 -233 80.5t-64 267.5zM229 1100q0 -54 3 -88.5t12 -66.5t28.5 -47t49.5 -15q50 0 71 50t21 167q0 118 -20.5 168.5t-71.5 50.5q-30 0 -49.5 -15
t-28.5 -48t-12 -67.5t-3 -88.5z" />
    <glyph glyph-name="guillemotright" unicode="&#xbb;" horiz-adv-x="872" 
d="M106 180v271l162 141l-162 141v271l306 -246v-332zM461 180v271l162 141l-162 141v271l305 -246v-332z" />
    <glyph glyph-name="onequarter" unicode="&#xbc;" horiz-adv-x="1476" 
d="M1169 326v297h-4l-176 -297h180zM821 158v186l312 533h253v-551h91v-168h-91v-158h-217v158h-348zM197 -63l831 1548h182l-831 -1548h-182zM186 573v594h-186v144h16q197 0 224 139h176v-877h-230z" />
    <glyph glyph-name="onehalf" unicode="&#xbd;" horiz-adv-x="1476" 
d="M147 -63l832 1548h182l-831 -1548h-183zM186 573v594h-186v144h16q197 0 224 139h176v-877h-230zM1477 0h-639q0 121 47.5 213t158.5 172l103 74q57 41 78.5 79t21.5 87q0 41 -24.5 68.5t-63.5 27.5q-99 0 -104 -150h-217v52q0 126 77.5 190t249.5 64q157 0 234.5 -59
t77.5 -163q0 -87 -29.5 -146.5t-106.5 -119.5l-116 -90q-95 -72 -109 -131h361v-168z" />
    <glyph glyph-name="threequarters" unicode="&#xbe;" horiz-adv-x="1476" 
d="M821 158v186l312 533h253v-551h91v-168h-91v-158h-217v158h-348zM989 326h180v297h-4zM276 -63l832 1548h182l-831 -1548h-183zM0 852h217q4 -137 100 -137q47 0 70 30t23 78q0 129 -123 129h-58v144h58q56 0 83 31t27 77q0 39 -23.5 64.5t-60.5 25.5q-94 0 -94 -123
h-205q0 140 74 211q71 68 223 68q153 0 228 -54t75 -169q0 -79 -37.5 -130t-105.5 -65v-4q168 -28 168 -205q0 -264 -346 -264q-149 0 -221 70.5t-72 201.5v21z" />
    <glyph glyph-name="questiondown" unicode="&#xbf;" horiz-adv-x="985" 
d="M641 92h270v-47q0 -191 -104 -306.5t-301 -115.5q-211 0 -321.5 105.5t-110.5 289.5q0 88 29 164t100 156l82 92q56 63 78 112t22 124v30h254v-80q0 -101 -28.5 -171.5t-98.5 -149.5l-78 -88q-78 -86 -78 -217q0 -80 36 -127t104 -47q145 0 145 225v51zM653 831h-282v271
h282v-271z" />
    <glyph glyph-name="Agrave" unicode="&#xc0;" horiz-adv-x="1138" 
d="M0 0l387 1462h365l387 -1462h-308l-67 309h-389l-68 -309h-307zM567 1208l-141 -657h287l-142 657h-4zM702 1548h-192l-201 295h283z" />
    <glyph glyph-name="Aacute" unicode="&#xc1;" horiz-adv-x="1138" 
d="M0 0l387 1462h365l387 -1462h-308l-67 309h-389l-68 -309h-307zM567 1208l-141 -657h287l-142 657h-4zM436 1548l111 295h282l-200 -295h-193z" />
    <glyph glyph-name="Acircumflex" unicode="&#xc2;" horiz-adv-x="1138" 
d="M0 0l387 1462h365l387 -1462h-308l-67 309h-389l-68 -309h-307zM567 1208l-141 -657h287l-142 657h-4zM262 1548l160 295h295l160 -295h-218l-94 174l-98 -174h-205z" />
    <glyph glyph-name="Atilde" unicode="&#xc3;" horiz-adv-x="1138" 
d="M0 0l387 1462h365l387 -1462h-308l-67 309h-389l-68 -309h-307zM567 1208l-141 -657h287l-142 657h-4zM391 1567h-143q37 254 190 254q50 0 88 -15l99 -43q30 -12 61 -12q26 0 41.5 24.5t15.5 49.5h148q-11 -111 -63 -182.5t-128 -71.5q-47 0 -130 34.5t-113 34.5
q-52 0 -66 -73z" />
    <glyph glyph-name="Adieresis" unicode="&#xc4;" horiz-adv-x="1138" 
d="M0 0l387 1462h365l387 -1462h-308l-67 309h-389l-68 -309h-307zM567 1208l-141 -657h287l-142 657h-4zM279 1567v241h229v-241h-229zM631 1567v241h229v-241h-229z" />
    <glyph glyph-name="Aring" unicode="&#xc5;" horiz-adv-x="1138" 
d="M0 0l387 1462h365l387 -1462h-308l-67 309h-389l-68 -309h-307zM567 1208l-141 -657h287l-142 657h-4zM336 1735q0 97 68 165t165 68t165.5 -68t68.5 -165t-68.5 -165.5t-165.5 -68.5t-165 68.5t-68 165.5zM451 1735q0 -50 34.5 -84.5t83.5 -34.5t84 35t35 84t-34.5 83.5
t-84.5 34.5q-49 0 -83.5 -34.5t-34.5 -83.5z" />
    <glyph glyph-name="AE" unicode="&#xc6;" horiz-adv-x="1554" 
d="M-10 0l551 1462h948v-241h-481v-344h450v-242h-450v-393h501v-242h-784v309h-326l-102 -309h-307zM479 551h246v682h-18z" />
    <glyph glyph-name="Ccedilla" unicode="&#xc7;" horiz-adv-x="1099" 
d="M438 -188l97 159q-87 4 -155.5 26t-116.5 56.5t-83 89t-55.5 113t-32.5 140t-16 158t-4 177.5q0 90 3.5 160.5t12 145t25 130.5t42 110t63 91t87 66t116 43t148.5 14q88 0 158 -18.5t116.5 -47t80.5 -73.5t52.5 -87.5t29 -99.5t13.5 -99.5t3 -96.5h-295q0 163 -39 234
t-137 71q-110 0 -147 -121.5t-37 -441.5q0 -164 11 -268t36 -159.5t57.5 -75.5t83.5 -20q44 0 74.5 14.5t57 52.5t39.5 114t13 190h295q0 -121 -16 -213t-57 -175.5t-120.5 -134t-195.5 -63.5l-61 -98q42 10 67 10q65 0 118.5 -41.5t53.5 -109.5q0 -90 -67.5 -141.5
t-190.5 -51.5q-63 0 -120 12t-85 27l39 94q22 -12 63 -21t79 -9q43 0 72.5 20t29.5 49q0 31 -24.5 50.5t-65.5 19.5q-35 0 -70 -12z" />
    <glyph glyph-name="Egrave" unicode="&#xc8;" horiz-adv-x="985" 
d="M102 1462h818v-241h-523v-344h492v-242h-492v-393h543v-242h-838v1462zM651 1548h-192l-201 295h283z" />
    <glyph glyph-name="Eacute" unicode="&#xc9;" horiz-adv-x="985" 
d="M102 1462h818v-241h-523v-344h492v-242h-492v-393h543v-242h-838v1462zM385 1548l111 295h282l-200 -295h-193z" />
    <glyph glyph-name="Ecircumflex" unicode="&#xca;" horiz-adv-x="985" 
d="M102 1462h818v-241h-523v-344h492v-242h-492v-393h543v-242h-838v1462zM211 1548l160 295h295l159 -295h-217l-94 174l-98 -174h-205z" />
    <glyph glyph-name="Edieresis" unicode="&#xcb;" horiz-adv-x="985" 
d="M102 1462h818v-241h-523v-344h492v-242h-492v-393h543v-242h-838v1462zM227 1567v241h230v-241h-230zM580 1567v241h229v-241h-229z" />
    <glyph glyph-name="Igrave" unicode="&#xcc;" horiz-adv-x="528" 
d="M412 0h-295v1462h295v-1462zM397 1548h-192l-201 295h283z" />
    <glyph glyph-name="Iacute" unicode="&#xcd;" horiz-adv-x="528" 
d="M412 0h-295v1462h295v-1462zM131 1548l111 295h282l-200 -295h-193z" />
    <glyph glyph-name="Icircumflex" unicode="&#xce;" horiz-adv-x="528" 
d="M412 0h-295v1462h295v-1462zM-43 1548l160 295h295l159 -295h-217l-94 174l-98 -174h-205z" />
    <glyph glyph-name="Idieresis" unicode="&#xcf;" horiz-adv-x="528" 
d="M412 0h-295v1462h295v-1462zM-27 1567v241h230v-241h-230zM326 1567v241h229v-241h-229z" />
    <glyph glyph-name="Eth" unicode="&#xd0;" horiz-adv-x="1175" 
d="M117 0v645h-117v217h117v600h483q87 0 156 -17t119 -48t87 -79.5t60 -105t37 -132.5t19 -153t5 -175q0 -202 -23.5 -337.5t-80.5 -231.5t-154 -139.5t-243 -43.5h-465zM412 1245v-383h190v-217h-190v-428h131q62 0 104 17.5t70.5 52.5t43.5 100.5t21 147.5t6 208
q0 91 -3 153t-12 123.5t-26 99.5t-44.5 68.5t-68.5 44t-97 13.5h-125z" />
    <glyph glyph-name="Ntilde" unicode="&#xd1;" horiz-adv-x="1175" 
d="M102 1462h340l357 -1001h4v1001h270v-1462h-336l-360 1024h-4v-1024h-271v1462zM410 1567h-144q18 122 66 188t125 66q51 0 88 -15l98 -43q30 -12 62 -12q26 0 41.5 24.5t15.5 49.5h147q-11 -111 -62.5 -182.5t-127.5 -71.5q-47 0 -130.5 34.5t-113.5 34.5q-51 0 -65 -73
z" />
    <glyph glyph-name="Ograve" unicode="&#xd2;" horiz-adv-x="1138" 
d="M72 731q0 90 3.5 160.5t12 145t25 130.5t42 110t63 91t87 66t116 43t148.5 14q93 0 166.5 -19.5t125.5 -53t89.5 -88t60 -113.5t35 -142t17 -161.5t4.5 -182.5t-4.5 -182.5t-17 -161.5t-35 -142t-60 -113.5t-89.5 -88t-125.5 -53t-166.5 -19.5q-82 0 -148.5 14t-116 43
t-87 66t-63 91t-42 110t-25 130.5t-12 145t-3.5 160.5zM367 731q0 -105 3 -177.5t11 -137.5t22 -104.5t36.5 -69t54 -42t75.5 -12.5t75.5 12.5t54.5 42t37 69t22 104.5t11 137.5t3 177.5q0 104 -3 176.5t-11 137.5t-22 105t-37 69.5t-54.5 42t-75.5 12.5t-75.5 -12.5
t-54 -42t-36.5 -69.5t-22 -105t-11 -137.5t-3 -176.5zM702 1548h-192l-201 295h283z" />
    <glyph glyph-name="Oacute" unicode="&#xd3;" horiz-adv-x="1138" 
d="M72 731q0 90 3.5 160.5t12 145t25 130.5t42 110t63 91t87 66t116 43t148.5 14q93 0 166.5 -19.5t125.5 -53t89.5 -88t60 -113.5t35 -142t17 -161.5t4.5 -182.5t-4.5 -182.5t-17 -161.5t-35 -142t-60 -113.5t-89.5 -88t-125.5 -53t-166.5 -19.5q-82 0 -148.5 14t-116 43
t-87 66t-63 91t-42 110t-25 130.5t-12 145t-3.5 160.5zM367 731q0 -105 3 -177.5t11 -137.5t22 -104.5t36.5 -69t54 -42t75.5 -12.5t75.5 12.5t54.5 42t37 69t22 104.5t11 137.5t3 177.5q0 104 -3 176.5t-11 137.5t-22 105t-37 69.5t-54.5 42t-75.5 12.5t-75.5 -12.5
t-54 -42t-36.5 -69.5t-22 -105t-11 -137.5t-3 -176.5zM436 1548l111 295h282l-200 -295h-193z" />
    <glyph glyph-name="Ocircumflex" unicode="&#xd4;" horiz-adv-x="1138" 
d="M72 731q0 90 3.5 160.5t12 145t25 130.5t42 110t63 91t87 66t116 43t148.5 14q93 0 166.5 -19.5t125.5 -53t89.5 -88t60 -113.5t35 -142t17 -161.5t4.5 -182.5t-4.5 -182.5t-17 -161.5t-35 -142t-60 -113.5t-89.5 -88t-125.5 -53t-166.5 -19.5q-82 0 -148.5 14t-116 43
t-87 66t-63 91t-42 110t-25 130.5t-12 145t-3.5 160.5zM367 731q0 -105 3 -177.5t11 -137.5t22 -104.5t36.5 -69t54 -42t75.5 -12.5t75.5 12.5t54.5 42t37 69t22 104.5t11 137.5t3 177.5q0 104 -3 176.5t-11 137.5t-22 105t-37 69.5t-54.5 42t-75.5 12.5t-75.5 -12.5
t-54 -42t-36.5 -69.5t-22 -105t-11 -137.5t-3 -176.5zM262 1548l160 295h295l160 -295h-218l-94 174l-98 -174h-205z" />
    <glyph glyph-name="Otilde" unicode="&#xd5;" horiz-adv-x="1138" 
d="M72 731q0 90 3.5 160.5t12 145t25 130.5t42 110t63 91t87 66t116 43t148.5 14q93 0 166.5 -19.5t125.5 -53t89.5 -88t60 -113.5t35 -142t17 -161.5t4.5 -182.5t-4.5 -182.5t-17 -161.5t-35 -142t-60 -113.5t-89.5 -88t-125.5 -53t-166.5 -19.5q-82 0 -148.5 14t-116 43
t-87 66t-63 91t-42 110t-25 130.5t-12 145t-3.5 160.5zM367 731q0 -105 3 -177.5t11 -137.5t22 -104.5t36.5 -69t54 -42t75.5 -12.5t75.5 12.5t54.5 42t37 69t22 104.5t11 137.5t3 177.5q0 104 -3 176.5t-11 137.5t-22 105t-37 69.5t-54.5 42t-75.5 12.5t-75.5 -12.5
t-54 -42t-36.5 -69.5t-22 -105t-11 -137.5t-3 -176.5zM391 1567h-143q37 254 190 254q50 0 88 -15l99 -43q30 -12 61 -12q26 0 41.5 24.5t15.5 49.5h148q-11 -111 -63 -182.5t-128 -71.5q-47 0 -130 34.5t-113 34.5q-52 0 -66 -73z" />
    <glyph glyph-name="Odieresis" unicode="&#xd6;" horiz-adv-x="1138" 
d="M72 731q0 90 3.5 160.5t12 145t25 130.5t42 110t63 91t87 66t116 43t148.5 14q93 0 166.5 -19.5t125.5 -53t89.5 -88t60 -113.5t35 -142t17 -161.5t4.5 -182.5t-4.5 -182.5t-17 -161.5t-35 -142t-60 -113.5t-89.5 -88t-125.5 -53t-166.5 -19.5q-82 0 -148.5 14t-116 43
t-87 66t-63 91t-42 110t-25 130.5t-12 145t-3.5 160.5zM367 731q0 -105 3 -177.5t11 -137.5t22 -104.5t36.5 -69t54 -42t75.5 -12.5t75.5 12.5t54.5 42t37 69t22 104.5t11 137.5t3 177.5q0 104 -3 176.5t-11 137.5t-22 105t-37 69.5t-54.5 42t-75.5 12.5t-75.5 -12.5
t-54 -42t-36.5 -69.5t-22 -105t-11 -137.5t-3 -176.5zM279 1567v241h229v-241h-229zM631 1567v241h229v-241h-229z" />
    <glyph glyph-name="multiply" unicode="&#xd7;" horiz-adv-x="1228" 
d="M121 201l319 317l-319 318l176 176l317 -320l318 320l176 -176l-320 -318l320 -317l-176 -176l-318 319l-317 -319z" />
    <glyph glyph-name="Oslash" unicode="&#xd8;" horiz-adv-x="1138" 
d="M383 428l330 772q-45 74 -144 74q-44 0 -75.5 -12.5t-54 -42t-36.5 -69.5t-22 -105t-11 -137.5t-3 -176.5q0 -212 12 -303h4zM756 1034l-330 -770q42 -76 143 -76q44 0 75.5 12.5t54.5 42t37 69t22 104.5t11 137.5t3 177.5q0 209 -12 303h-4zM170 -61l61 143
q-95 88 -127 244.5t-32 404.5q0 90 3.5 160.5t12 145t25 130.5t42 110t63 91t87 66t116 43t148.5 14q150 0 248 -49l53 125l99 -43l-62 -144q95 -88 127.5 -245t32.5 -404q0 -104 -4.5 -182.5t-17 -161.5t-35 -142t-60 -113.5t-89.5 -88t-125.5 -53t-166.5 -19.5
q-153 0 -247 49l-54 -124z" />
    <glyph glyph-name="Ugrave" unicode="&#xd9;" horiz-adv-x="1101" 
d="M84 1462h295v-1020q0 -58 8 -101.5t26.5 -79.5t53 -54.5t84.5 -18.5t84.5 18.5t53 54.5t26.5 79.5t8 101.5v1020h295v-1020q0 -108 -26 -191.5t-69 -135.5t-104.5 -85t-126.5 -46t-141 -13q-78 0 -141.5 11t-126 42.5t-105 82.5t-68.5 136t-26 199v1020zM684 1548h-192
l-201 295h282z" />
    <glyph glyph-name="Uacute" unicode="&#xda;" horiz-adv-x="1101" 
d="M84 1462h295v-1020q0 -58 8 -101.5t26.5 -79.5t53 -54.5t84.5 -18.5t84.5 18.5t53 54.5t26.5 79.5t8 101.5v1020h295v-1020q0 -108 -26 -191.5t-69 -135.5t-104.5 -85t-126.5 -46t-141 -13q-78 0 -141.5 11t-126 42.5t-105 82.5t-68.5 136t-26 199v1020zM418 1548
l110 295h283l-201 -295h-192z" />
    <glyph glyph-name="Ucircumflex" unicode="&#xdb;" horiz-adv-x="1101" 
d="M84 1462h295v-1020q0 -58 8 -101.5t26.5 -79.5t53 -54.5t84.5 -18.5t84.5 18.5t53 54.5t26.5 79.5t8 101.5v1020h295v-1020q0 -108 -26 -191.5t-69 -135.5t-104.5 -85t-126.5 -46t-141 -13q-78 0 -141.5 11t-126 42.5t-105 82.5t-68.5 136t-26 199v1020zM244 1548
l159 295h295l160 -295h-217l-94 174l-98 -174h-205z" />
    <glyph glyph-name="Udieresis" unicode="&#xdc;" horiz-adv-x="1101" 
d="M84 1462h295v-1020q0 -58 8 -101.5t26.5 -79.5t53 -54.5t84.5 -18.5t84.5 18.5t53 54.5t26.5 79.5t8 101.5v1020h295v-1020q0 -108 -26 -191.5t-69 -135.5t-104.5 -85t-126.5 -46t-141 -13q-78 0 -141.5 11t-126 42.5t-105 82.5t-68.5 136t-26 199v1020zM260 1567v241
h229v-241h-229zM612 1567v241h230v-241h-230z" />
    <glyph glyph-name="Yacute" unicode="&#xdd;" horiz-adv-x="1064" 
d="M6 1462h332l192 -565h5l204 565h320l-379 -887v-575h-295v575zM399 1548l111 295h283l-201 -295h-193z" />
    <glyph glyph-name="Thorn" unicode="&#xde;" horiz-adv-x="1062" 
d="M102 0v1462h295v-262h221q87 0 156.5 -24.5t114.5 -66t75 -99t43 -119t13 -129.5q0 -220 -124 -330t-341 -110h-158v-322h-295zM397 983v-444h131q91 0 144 55t53 164q0 111 -49 168t-156 57h-123z" />
    <glyph glyph-name="germandbls" unicode="&#xdf;" horiz-adv-x="1024" 
d="M367 0h-283v1079q0 213 106 312.5t328 99.5q194 0 299 -90t105 -260q0 -119 -39.5 -188t-143.5 -113v-4q228 -38 228 -394q0 -67 -8 -125t-32.5 -121t-63.5 -107t-106.5 -72.5t-156.5 -28.5q-94 0 -135 8v192q24 -8 43 -8q55 0 90.5 20t54 61.5t25 92t6.5 125.5
q0 120 -37.5 184t-126.5 64h-51v193h35q135 0 135 194q0 81 -31.5 132.5t-103.5 51.5q-79 0 -108 -57.5t-29 -167.5v-1073z" />
    <glyph glyph-name="agrave" unicode="&#xe0;" horiz-adv-x="985" 
d="M346 764h-254v27q0 92 30 159.5t84.5 105.5t122 56t150.5 18q99 0 170.5 -16.5t115.5 -44.5t70 -72t35 -92t9 -112v-580q0 -80 6.5 -123.5t27.5 -89.5h-270q-17 34 -35 115h-4q-48 -83 -111 -113.5t-169 -30.5q-57 0 -103 19t-76 50t-50.5 72.5t-29 85t-8.5 89.5
q0 151 64.5 227t214.5 117l160 43q63 17 87.5 45.5t24.5 83.5q0 135 -131 135q-63 0 -97 -38.5t-34 -104.5v-31zM608 334v217q-53 -39 -121 -55q-85 -18 -122 -61t-37 -118q0 -68 26 -110.5t80 -42.5q66 0 120 43.5t54 126.5zM627 1231h-193l-201 295h283z" />
    <glyph glyph-name="aacute" unicode="&#xe1;" horiz-adv-x="985" 
d="M346 764h-254v27q0 92 30 159.5t84.5 105.5t122 56t150.5 18q99 0 170.5 -16.5t115.5 -44.5t70 -72t35 -92t9 -112v-580q0 -80 6.5 -123.5t27.5 -89.5h-270q-17 34 -35 115h-4q-48 -83 -111 -113.5t-169 -30.5q-57 0 -103 19t-76 50t-50.5 72.5t-29 85t-8.5 89.5
q0 151 64.5 227t214.5 117l160 43q63 17 87.5 45.5t24.5 83.5q0 135 -131 135q-63 0 -97 -38.5t-34 -104.5v-31zM608 334v217q-53 -39 -121 -55q-85 -18 -122 -61t-37 -118q0 -68 26 -110.5t80 -42.5q66 0 120 43.5t54 126.5zM360 1231l111 295h283l-201 -295h-193z" />
    <glyph glyph-name="acircumflex" unicode="&#xe2;" horiz-adv-x="985" 
d="M346 764h-254v27q0 92 30 159.5t84.5 105.5t122 56t150.5 18q99 0 170.5 -16.5t115.5 -44.5t70 -72t35 -92t9 -112v-580q0 -80 6.5 -123.5t27.5 -89.5h-270q-17 34 -35 115h-4q-48 -83 -111 -113.5t-169 -30.5q-57 0 -103 19t-76 50t-50.5 72.5t-29 85t-8.5 89.5
q0 151 64.5 227t214.5 117l160 43q63 17 87.5 45.5t24.5 83.5q0 135 -131 135q-63 0 -97 -38.5t-34 -104.5v-31zM608 334v217q-53 -39 -121 -55q-85 -18 -122 -61t-37 -118q0 -68 26 -110.5t80 -42.5q66 0 120 43.5t54 126.5zM186 1231l160 295h295l160 -295h-217l-95 174
l-98 -174h-205z" />
    <glyph glyph-name="atilde" unicode="&#xe3;" horiz-adv-x="985" 
d="M346 764h-254v27q0 92 30 159.5t84.5 105.5t122 56t150.5 18q99 0 170.5 -16.5t115.5 -44.5t70 -72t35 -92t9 -112v-580q0 -80 6.5 -123.5t27.5 -89.5h-270q-17 34 -35 115h-4q-48 -83 -111 -113.5t-169 -30.5q-57 0 -103 19t-76 50t-50.5 72.5t-29 85t-8.5 89.5
q0 151 64.5 227t214.5 117l160 43q63 17 87.5 45.5t24.5 83.5q0 135 -131 135q-63 0 -97 -38.5t-34 -104.5v-31zM608 334v217q-53 -39 -121 -55q-85 -18 -122 -61t-37 -118q0 -68 26 -110.5t80 -42.5q66 0 120 43.5t54 126.5zM315 1249h-143q37 254 190 254q54 0 89 -14
l98 -43q30 -12 61 -12q27 0 42.5 24.5t15.5 48.5h147q-11 -111 -62.5 -182.5t-127.5 -71.5q-47 0 -130.5 35t-113.5 35q-51 0 -66 -74z" />
    <glyph glyph-name="adieresis" unicode="&#xe4;" horiz-adv-x="985" 
d="M346 764h-254v27q0 92 30 159.5t84.5 105.5t122 56t150.5 18q99 0 170.5 -16.5t115.5 -44.5t70 -72t35 -92t9 -112v-580q0 -80 6.5 -123.5t27.5 -89.5h-270q-17 34 -35 115h-4q-48 -83 -111 -113.5t-169 -30.5q-57 0 -103 19t-76 50t-50.5 72.5t-29 85t-8.5 89.5
q0 151 64.5 227t214.5 117l160 43q63 17 87.5 45.5t24.5 83.5q0 135 -131 135q-63 0 -97 -38.5t-34 -104.5v-31zM608 334v217q-53 -39 -121 -55q-85 -18 -122 -61t-37 -118q0 -68 26 -110.5t80 -42.5q66 0 120 43.5t54 126.5zM203 1249v242h229v-242h-229zM555 1249v242h229
v-242h-229z" />
    <glyph glyph-name="aring" unicode="&#xe5;" horiz-adv-x="985" 
d="M346 764h-254v27q0 92 30 159.5t84.5 105.5t122 56t150.5 18q99 0 170.5 -16.5t115.5 -44.5t70 -72t35 -92t9 -112v-580q0 -80 6.5 -123.5t27.5 -89.5h-270q-17 34 -35 115h-4q-48 -83 -111 -113.5t-169 -30.5q-57 0 -103 19t-76 50t-50.5 72.5t-29 85t-8.5 89.5
q0 151 64.5 227t214.5 117l160 43q63 17 87.5 45.5t24.5 83.5q0 135 -131 135q-63 0 -97 -38.5t-34 -104.5v-31zM608 334v217q-53 -39 -121 -55q-85 -18 -122 -61t-37 -118q0 -68 26 -110.5t80 -42.5q66 0 120 43.5t54 126.5zM260 1430q0 97 68.5 165t165.5 68t165 -68
t68 -165t-68 -165.5t-165 -68.5t-165.5 68.5t-68.5 165.5zM375 1430q0 -50 34.5 -84.5t84.5 -34.5q49 0 83.5 34.5t34.5 84.5t-34 84t-84 34t-84.5 -34.5t-34.5 -83.5z" />
    <glyph glyph-name="ae" unicode="&#xe6;" horiz-adv-x="1478" 
d="M606 334v217q-53 -39 -121 -55q-85 -18 -122 -61t-37 -118q0 -68 26 -110.5t80 -42.5q66 0 120 43.5t54 126.5zM868 676h285q-2 69 -8.5 112.5t-21 80t-42 53t-69.5 16.5q-40 0 -69 -19.5t-45 -52.5t-23 -69.5t-7 -77.5v-43zM344 764h-254v27q0 92 30 159.5t84.5 105.5
t122 56t150.5 18q111 0 176.5 -29t108.5 -102q30 62 100 96.5t160 34.5q97 0 168 -26.5t115 -72.5t71 -118t37 -153t10 -189v-63h-555v-88q0 -51 7.5 -95t23 -81t43 -58.5t64.5 -21.5q67 0 101 51t46 156h254q-16 -400 -397 -400q-254 0 -332 191q-63 -117 -139.5 -154
t-216.5 -37q-57 0 -103 19t-76 50t-50.5 72.5t-29 85t-8.5 89.5q0 151 64.5 227t214.5 117l160 43q63 17 87.5 45.5t24.5 83.5q0 135 -131 135q-63 0 -97 -38.5t-34 -104.5v-31z" />
    <glyph glyph-name="ccedilla" unicode="&#xe7;" horiz-adv-x="948" 
d="M350 -188l96 159q-136 5 -220 60t-128.5 182t-44.5 338q0 133 22 234t60 166t95.5 105.5t122.5 57t147 16.5q192 0 293.5 -113t101.5 -312h-270q0 221 -127 221q-51 0 -83.5 -22t-49.5 -72.5t-23 -115t-6 -167.5q0 -215 30 -300t121 -85q71 0 104.5 62.5t33.5 195.5h270
q0 -200 -81 -313t-255 -134l-63 -100q42 10 67 10q65 0 118.5 -41.5t53.5 -109.5q0 -90 -67.5 -141.5t-190.5 -51.5q-63 0 -120 12t-85 27l39 94q22 -12 63 -21t79 -9q43 0 72.5 20t29.5 49q0 31 -24.5 50.5t-65.5 19.5q-35 0 -70 -12z" />
    <glyph glyph-name="egrave" unicode="&#xe8;" horiz-adv-x="948" 
d="M895 508h-559v-88q0 -109 33.5 -182.5t105.5 -73.5q68 0 103 51t47 156h254q-16 -400 -400 -400q-67 0 -122.5 12t-96.5 30.5t-73.5 50t-54 62.5t-37 76.5t-23.5 83t-12.5 91t-5.5 91.5t-1 93q0 98 8.5 173.5t36.5 153t74.5 128t127.5 82.5t192 32q97 0 168.5 -26.5
t116 -72.5t71.5 -118t37 -153t10 -189v-63zM336 676h289q-5 139 -33.5 200.5t-110.5 61.5q-40 0 -70 -19.5t-45.5 -52.5t-22.5 -69.5t-7 -77.5v-43zM608 1231h-192l-201 295h283z" />
    <glyph glyph-name="eacute" unicode="&#xe9;" horiz-adv-x="948" 
d="M895 508h-559v-88q0 -109 33.5 -182.5t105.5 -73.5q68 0 103 51t47 156h254q-16 -400 -400 -400q-67 0 -122.5 12t-96.5 30.5t-73.5 50t-54 62.5t-37 76.5t-23.5 83t-12.5 91t-5.5 91.5t-1 93q0 98 8.5 173.5t36.5 153t74.5 128t127.5 82.5t192 32q97 0 168.5 -26.5
t116 -72.5t71.5 -118t37 -153t10 -189v-63zM336 676h289q-5 139 -33.5 200.5t-110.5 61.5q-40 0 -70 -19.5t-45.5 -52.5t-22.5 -69.5t-7 -77.5v-43zM342 1231l111 295h282l-200 -295h-193z" />
    <glyph glyph-name="ecircumflex" unicode="&#xea;" horiz-adv-x="948" 
d="M895 508h-559v-88q0 -109 33.5 -182.5t105.5 -73.5q68 0 103 51t47 156h254q-16 -400 -400 -400q-67 0 -122.5 12t-96.5 30.5t-73.5 50t-54 62.5t-37 76.5t-23.5 83t-12.5 91t-5.5 91.5t-1 93q0 98 8.5 173.5t36.5 153t74.5 128t127.5 82.5t192 32q97 0 168.5 -26.5
t116 -72.5t71.5 -118t37 -153t10 -189v-63zM336 676h289q-5 139 -33.5 200.5t-110.5 61.5q-40 0 -70 -19.5t-45.5 -52.5t-22.5 -69.5t-7 -77.5v-43zM168 1231l160 295h295l159 -295h-217l-94 174l-98 -174h-205z" />
    <glyph glyph-name="edieresis" unicode="&#xeb;" horiz-adv-x="948" 
d="M895 508h-559v-88q0 -109 33.5 -182.5t105.5 -73.5q68 0 103 51t47 156h254q-16 -400 -400 -400q-67 0 -122.5 12t-96.5 30.5t-73.5 50t-54 62.5t-37 76.5t-23.5 83t-12.5 91t-5.5 91.5t-1 93q0 98 8.5 173.5t36.5 153t74.5 128t127.5 82.5t192 32q97 0 168.5 -26.5
t116 -72.5t71.5 -118t37 -153t10 -189v-63zM336 676h289q-5 139 -33.5 200.5t-110.5 61.5q-40 0 -70 -19.5t-45.5 -52.5t-22.5 -69.5t-7 -77.5v-43zM184 1249v242h230v-242h-230zM537 1249v242h229v-242h-229z" />
    <glyph glyph-name="igrave" unicode="&#xec;" horiz-adv-x="491" 
d="M104 0v1102h283v-1102h-283zM379 1231h-193l-200 295h282z" />
    <glyph glyph-name="iacute" unicode="&#xed;" horiz-adv-x="491" 
d="M104 0v1102h283v-1102h-283zM113 1231l110 295h283l-201 -295h-192z" />
    <glyph glyph-name="icircumflex" unicode="&#xee;" horiz-adv-x="491" 
d="M104 0v1102h283v-1102h-283zM-61 1231l159 295h295l160 -295h-217l-94 174l-99 -174h-204z" />
    <glyph glyph-name="idieresis" unicode="&#xef;" horiz-adv-x="491" 
d="M104 0v1102h283v-1102h-283zM-45 1249v242h229v-242h-229zM307 1249v242h230v-242h-230z" />
    <glyph glyph-name="eth" unicode="&#xf0;" 
d="M340 537q0 -74 2.5 -123t11 -101t24.5 -81.5t44.5 -48.5t69.5 -19q85 0 118 85.5t33 287.5q0 193 -33.5 276.5t-117.5 83.5q-34 0 -59.5 -12t-42 -36.5t-26.5 -54t-15.5 -74t-7 -85t-1.5 -98.5zM215 1194l-80 86l156 92q-49 49 -135 131l213 125q65 -57 137 -129l153 92
l89 -86l-158 -92q170 -187 253 -389t83 -473q0 -294 -99.5 -437t-334.5 -143q-126 -2 -211 33.5t-134 112t-69.5 180.5t-20.5 254q0 254 88 396.5t269 142.5q77 0 143 -54l4 4q-65 105 -188 246z" />
    <glyph glyph-name="ntilde" unicode="&#xf1;" horiz-adv-x="1024" 
d="M94 0v1102h271v-129h4q85 157 280 157q136 0 208.5 -77t72.5 -236v-817h-283v760q0 82 -28.5 117.5t-92.5 35.5q-149 0 -149 -182v-731h-283zM334 1249h-144q18 122 66 188t125 66q53 0 88 -14l98 -43q30 -12 62 -12q27 0 42 24t15 49h148q-11 -111 -63 -182.5
t-128 -71.5q-47 0 -130.5 35t-113.5 35q-50 0 -65 -74z" />
    <glyph glyph-name="ograve" unicode="&#xf2;" 
d="M57 551q0 294 100 436.5t335 142.5q126 2 211 -33t133.5 -111.5t69 -180.5t20.5 -254q0 -294 -99.5 -437t-334.5 -143q-126 -2 -211 33.5t-134 112t-69.5 180.5t-20.5 254zM340 551q0 -64 1.5 -108t7 -92t15.5 -79t26.5 -57t42 -38.5t59.5 -12.5q85 0 118 88.5t33 298.5
t-33 298.5t-118 88.5q-34 0 -59.5 -12.5t-42 -38.5t-26.5 -57t-15.5 -79t-7 -92t-1.5 -108zM625 1231h-193l-201 295h283z" />
    <glyph glyph-name="oacute" unicode="&#xf3;" 
d="M57 551q0 294 100 436.5t335 142.5q126 2 211 -33t133.5 -111.5t69 -180.5t20.5 -254q0 -294 -99.5 -437t-334.5 -143q-126 -2 -211 33.5t-134 112t-69.5 180.5t-20.5 254zM340 551q0 -64 1.5 -108t7 -92t15.5 -79t26.5 -57t42 -38.5t59.5 -12.5q85 0 118 88.5t33 298.5
t-33 298.5t-118 88.5q-34 0 -59.5 -12.5t-42 -38.5t-26.5 -57t-15.5 -79t-7 -92t-1.5 -108zM358 1231l111 295h283l-201 -295h-193z" />
    <glyph glyph-name="ocircumflex" unicode="&#xf4;" 
d="M57 551q0 294 100 436.5t335 142.5q126 2 211 -33t133.5 -111.5t69 -180.5t20.5 -254q0 -294 -99.5 -437t-334.5 -143q-126 -2 -211 33.5t-134 112t-69.5 180.5t-20.5 254zM340 551q0 -64 1.5 -108t7 -92t15.5 -79t26.5 -57t42 -38.5t59.5 -12.5q85 0 118 88.5t33 298.5
t-33 298.5t-118 88.5q-34 0 -59.5 -12.5t-42 -38.5t-26.5 -57t-15.5 -79t-7 -92t-1.5 -108zM184 1231l160 295h295l160 -295h-217l-95 174l-98 -174h-205z" />
    <glyph glyph-name="otilde" unicode="&#xf5;" 
d="M57 551q0 294 100 436.5t335 142.5q126 2 211 -33t133.5 -111.5t69 -180.5t20.5 -254q0 -294 -99.5 -437t-334.5 -143q-126 -2 -211 33.5t-134 112t-69.5 180.5t-20.5 254zM340 551q0 -64 1.5 -108t7 -92t15.5 -79t26.5 -57t42 -38.5t59.5 -12.5q85 0 118 88.5t33 298.5
t-33 298.5t-118 88.5q-34 0 -59.5 -12.5t-42 -38.5t-26.5 -57t-15.5 -79t-7 -92t-1.5 -108zM313 1249h-143q37 254 190 254q54 0 89 -14l98 -43q30 -12 61 -12q27 0 42.5 24.5t15.5 48.5h147q-11 -111 -62.5 -182.5t-127.5 -71.5q-47 0 -130.5 35t-113.5 35q-51 0 -66 -74z
" />
    <glyph glyph-name="odieresis" unicode="&#xf6;" 
d="M57 551q0 294 100 436.5t335 142.5q126 2 211 -33t133.5 -111.5t69 -180.5t20.5 -254q0 -294 -99.5 -437t-334.5 -143q-126 -2 -211 33.5t-134 112t-69.5 180.5t-20.5 254zM340 551q0 -64 1.5 -108t7 -92t15.5 -79t26.5 -57t42 -38.5t59.5 -12.5q85 0 118 88.5t33 298.5
t-33 298.5t-118 88.5q-34 0 -59.5 -12.5t-42 -38.5t-26.5 -57t-15.5 -79t-7 -92t-1.5 -108zM201 1249v242h229v-242h-229zM553 1249v242h229v-242h-229z" />
    <glyph glyph-name="divide" unicode="&#xf7;" horiz-adv-x="1228" 
d="M96 391v254h1037v-254h-1037zM416 952q0 83 57.5 141t140.5 58t141 -58t58 -141t-58 -140.5t-141 -57.5t-140.5 57.5t-57.5 140.5zM416 84q0 83 57.5 141t140.5 58t141 -58t58 -141t-58 -141t-141 -58t-140.5 58t-57.5 141z" />
    <glyph glyph-name="oslash" unicode="&#xf8;" 
d="M348 381l252 487q-33 70 -108 70q-34 0 -59.5 -12.5t-42 -38.5t-26.5 -57t-15.5 -79t-7 -92t-1.5 -108q0 -121 4 -170h4zM635 719l-254 -488q31 -67 111 -67q85 0 118 88.5t33 298.5q0 74 -4 168h-4zM109 -72l75 144q-68 67 -97.5 185t-29.5 294q0 294 100 436.5
t335 142.5q138 3 223 -43l69 134l90 -47l-75 -144q68 -67 97.5 -185t29.5 -294q0 -294 -99.5 -437t-334.5 -143q-142 -3 -224 43l-69 -133z" />
    <glyph glyph-name="ugrave" unicode="&#xf9;" horiz-adv-x="1024" 
d="M659 0v129h-4q-86 -158 -280 -158q-135 0 -208 77.5t-73 236.5v817h283v-760q0 -82 28.5 -118t92.5 -36q149 0 149 183v731h283v-1102h-271zM645 1231h-192l-201 295h283z" />
    <glyph glyph-name="uacute" unicode="&#xfa;" horiz-adv-x="1024" 
d="M659 0v129h-4q-86 -158 -280 -158q-135 0 -208 77.5t-73 236.5v817h283v-760q0 -82 28.5 -118t92.5 -36q149 0 149 183v731h283v-1102h-271zM379 1231l110 295h283l-201 -295h-192z" />
    <glyph glyph-name="ucircumflex" unicode="&#xfb;" horiz-adv-x="1024" 
d="M659 0v129h-4q-86 -158 -280 -158q-135 0 -208 77.5t-73 236.5v817h283v-760q0 -82 28.5 -118t92.5 -36q149 0 149 183v731h283v-1102h-271zM205 1231l160 295h294l160 -295h-217l-94 174l-98 -174h-205z" />
    <glyph glyph-name="udieresis" unicode="&#xfc;" horiz-adv-x="1024" 
d="M659 0v129h-4q-86 -158 -280 -158q-135 0 -208 77.5t-73 236.5v817h283v-760q0 -82 28.5 -118t92.5 -36q149 0 149 183v731h283v-1102h-271zM221 1249v242h230v-242h-230zM573 1249v242h230v-242h-230z" />
    <glyph glyph-name="yacute" unicode="&#xfd;" horiz-adv-x="909" 
d="M94 -360v210q37 -6 74 -6q75 0 110 39.5t41 116.5l-309 1102h295l164 -762h4l143 762h283l-266 -1028q-26 -100 -47 -165t-48.5 -116.5t-54.5 -79t-69.5 -45t-88.5 -23t-116 -5.5h-115zM322 1231l110 295h283l-201 -295h-192z" />
    <glyph glyph-name="thorn" unicode="&#xfe;" horiz-adv-x="1024" 
d="M377 551q0 -97 6 -159.5t21.5 -111t45.5 -70.5t76 -22q45 0 74.5 22t45.5 70.5t22 111.5t6 159t-6 159t-22 111t-45 70t-75 22q-37 0 -63.5 -15t-43 -42.5t-26 -74t-13 -100t-3.5 -130.5zM94 -360v1822h283v-477h4q70 145 237 145q175 0 256.5 -137t81.5 -442
t-81.5 -442.5t-256.5 -137.5q-78 0 -135 32t-102 99h-4v-462h-283z" />
    <glyph glyph-name="ydieresis" unicode="&#xff;" horiz-adv-x="909" 
d="M94 -360v210q37 -6 74 -6q75 0 110 39.5t41 116.5l-309 1102h295l164 -762h4l143 762h283l-266 -1028q-26 -100 -47 -165t-48.5 -116.5t-54.5 -79t-69.5 -45t-88.5 -23t-116 -5.5h-115zM164 1249v242h229v-242h-229zM516 1249v242h229v-242h-229z" />
    <glyph glyph-name="dotlessi" unicode="&#x131;" horiz-adv-x="491" 
d="M104 0v1102h283v-1102h-283z" />
    <glyph glyph-name="Lslash" unicode="&#x141;" horiz-adv-x="948" 
d="M102 0v524l-102 -63v217l102 63v721h295v-536l258 161v-217l-258 -161v-467h523v-242h-818z" />
    <glyph glyph-name="lslash" unicode="&#x142;" horiz-adv-x="491" 
d="M104 0v578l-129 -86v180l129 86v704h283v-518l129 84v-180l-129 -84v-764h-283z" />
    <glyph glyph-name="OE" unicode="&#x152;" horiz-adv-x="1593" 
d="M1532 1462v-241h-496v-344h465v-242h-465v-393h512v-242h-764v84h-4q-23 -51 -98 -82t-154 -31q-70 0 -128.5 14.5t-102 38.5t-78 63t-58 79.5t-40.5 98t-26 108.5t-14.5 120.5t-7 125t-1.5 129.5q0 88 4.5 161t16.5 151.5t32 139.5t54 117.5t79.5 93t110.5 58.5t145 22
q202 0 266 -107h4v78h748zM367 731q0 -105 2.5 -176t10 -137t21.5 -105.5t36.5 -69.5t54.5 -42.5t77 -12.5q33 0 58 5.5t44.5 22t32.5 35t22.5 55t15 72t8 95.5t3.5 115.5t1 142.5t-1 142.5t-3.5 115.5t-8 95.5t-15 72t-22.5 55t-32.5 35t-44.5 22t-58 5.5q-45 0 -77 -12.5
t-54.5 -42.5t-36.5 -69.5t-21.5 -105.5t-10 -137t-2.5 -176z" />
    <glyph glyph-name="oe" unicode="&#x153;" horiz-adv-x="1517" 
d="M1458 508h-559v-88q0 -109 33.5 -182.5t105.5 -73.5q68 0 103 51t47 156h254q-8 -195 -103 -297.5t-280 -102.5q-119 0 -190 46t-97 116q-29 -76 -112 -119t-191 -43q-117 0 -197 36t-126.5 111.5t-66.5 179.5t-20 253q0 294 100 436.5t335 142.5q112 0 181 -37t111 -116
q40 73 112.5 113t156.5 40q97 0 168.5 -26.5t116 -72.5t71.5 -118t37 -153t10 -189v-63zM498 164q82 0 114.5 89t32.5 298q0 210 -33 298.5t-118 88.5q-34 0 -59.5 -12.5t-42 -38.5t-26.5 -57t-15.5 -79t-7 -92t-1.5 -108t1.5 -107.5t7 -92t16 -79t27.5 -57t43 -39t61 -12.5
zM899 676h289q-5 139 -33.5 200.5t-110.5 61.5q-40 0 -70 -19.5t-45.5 -52.5t-22.5 -69.5t-7 -77.5v-43z" />
    <glyph glyph-name="Scaron" unicode="&#x160;" horiz-adv-x="1062" 
d="M45 457h295v-43q0 -112 42.5 -169t152.5 -57q73 0 124.5 47t51.5 134q0 97 -55 146.5t-207 102.5q-204 70 -293.5 168t-89.5 275q0 210 119.5 320t332.5 110q101 0 182 -22.5t142.5 -68.5t95 -122.5t33.5 -179.5v-41h-283q0 217 -160 217q-168 0 -168 -170
q0 -72 31.5 -116.5t120.5 -82.5l227 -98q159 -69 219 -158t60 -229q0 -227 -131.5 -338t-376.5 -111q-243 0 -354 108t-111 318v60zM385 1548l-160 295h217l95 -174l98 174h205l-160 -295h-295z" />
    <glyph glyph-name="scaron" unicode="&#x161;" horiz-adv-x="909" 
d="M47 360h254v-36q0 -73 38.5 -116.5t109.5 -43.5q66 0 104.5 33.5t38.5 97.5q0 88 -103 125l-198 72q-119 42 -177.5 117t-58.5 190q0 70 23 128.5t70.5 104.5t127 72t185.5 26q189 0 283 -80.5t94 -232.5v-45h-254q0 85 -29 125.5t-96 40.5q-57 0 -95 -31.5t-38 -87.5
q0 -88 123 -129l169 -57q132 -44 188 -117t56 -199q0 -168 -112 -257t-297 -89q-116 0 -196.5 24.5t-125.5 72.5t-64.5 109.5t-19.5 144.5v38zM307 1231l-160 295h218l94 -174l98 174h205l-160 -295h-295z" />
    <glyph glyph-name="Ydieresis" unicode="&#x178;" horiz-adv-x="1064" 
d="M6 1462h332l192 -565h5l204 565h320l-379 -887v-575h-295v575zM242 1567v241h229v-241h-229zM594 1567v241h229v-241h-229z" />
    <glyph glyph-name="Zcaron" unicode="&#x17d;" horiz-adv-x="985" 
d="M49 0v215l539 1006h-502v241h842v-223l-547 -997h555v-242h-887zM346 1548l-160 295h217l95 -174l98 174h205l-160 -295h-295z" />
    <glyph glyph-name="zcaron" unicode="&#x17e;" horiz-adv-x="872" 
d="M49 0v217l440 655h-419v230h753v-217l-440 -656h440v-229h-774zM289 1231l-160 295h217l94 -174l99 174h204l-159 -295h-295z" />
    <glyph glyph-name="florin" unicode="&#x192;" 
d="M131 709l33 168h215l35 182q42 222 130 312.5t275 90.5q83 0 154 -6l-39 -192q-20 6 -57 6q-41 0 -68.5 -8t-47 -22.5t-34 -46t-24.5 -68t-23 -99.5l-31 -149h225l-30 -168h-228l-133 -701q-17 -94 -42 -156.5t-70 -113t-117.5 -74.5t-177.5 -24q-107 0 -148 14l41 186
q33 -8 72 -8q86 0 118.5 42t55.5 159l131 676h-215z" />
    <glyph glyph-name="circumflex" unicode="&#x2c6;" horiz-adv-x="454" 
d="M-80 1231l160 295h295l160 -295h-218l-94 174l-98 -174h-205z" />
    <glyph glyph-name="caron" unicode="&#x2c7;" horiz-adv-x="454" 
d="M80 1231l-160 295h217l94 -174l99 174h205l-160 -295h-295z" />
    <glyph glyph-name="uni02C9" unicode="&#x2c9;" horiz-adv-x="454" 
d="M-74 1462h602v-155h-602v155z" />
    <glyph glyph-name="breve" unicode="&#x2d8;" horiz-adv-x="454" 
d="M-57 1526h133q6 -58 49 -95.5t102 -37.5t102.5 37.5t49.5 95.5h133q-1 -36 -9 -73t-29 -76.5t-51.5 -70t-81.5 -50t-114 -19.5t-113.5 19.5t-81.5 50t-51.5 70t-28.5 76.5t-9 73z" />
    <glyph glyph-name="dotaccent" unicode="&#x2d9;" horiz-adv-x="454" 
d="M113 1491h229v-242h-229v242z" />
    <glyph glyph-name="ring" unicode="&#x2da;" horiz-adv-x="454" 
d="M-6 1430q0 97 68 165t165 68t165.5 -68t68.5 -165t-68.5 -165.5t-165.5 -68.5t-165 68.5t-68 165.5zM109 1430q0 -50 34.5 -84.5t83.5 -34.5t84 34.5t35 84.5q0 49 -34.5 83.5t-84.5 34.5q-49 0 -83.5 -34t-34.5 -84z" />
    <glyph glyph-name="ogonek" unicode="&#x2db;" horiz-adv-x="454" 
d="M430 -295l39 -117q-40 -22 -104 -34.5t-119 -12.5q-104 0 -150.5 50.5t-46.5 125.5q0 92 64.5 165t187.5 118h137q-125 -90 -167 -142t-42 -104q0 -35 21.5 -58.5t58.5 -23.5q62 0 121 33z" />
    <glyph glyph-name="tilde" unicode="&#x2dc;" horiz-adv-x="454" 
d="M49 1249h-143q37 254 190 254q53 0 88 -14l99 -43q30 -12 61 -12q27 0 42 24t15 49h148q-11 -111 -63 -182.5t-128 -71.5q-47 0 -130 35t-113 35q-51 0 -66 -74z" />
    <glyph glyph-name="hungarumlaut" unicode="&#x2dd;" horiz-adv-x="454" 
d="M-76 1231l111 295h282l-200 -295h-193zM264 1231l111 295h282l-200 -295h-193z" />
    <glyph glyph-name="uni03A9" unicode="&#x3a9;" horiz-adv-x="1226" 
d="M295 207v6q-90 106 -149.5 255t-59.5 325q0 179 65.5 328t188.5 238t278 89q100 0 186 -38.5t145.5 -102.5t101.5 -147t62 -172t20 -177q0 -180 -61 -339t-148 -259v-6h235v-207h-461v150q80 66 135.5 220t55.5 382q0 130 -29 236t-93 174.5t-153 68.5q-130 0 -206 -136
t-76 -354q0 -212 56 -370.5t136 -220.5v-150h-463v207h234z" />
    <glyph glyph-name="uni03BC" unicode="&#x3bc;" horiz-adv-x="1024" 
d="M647 371v731h283v-1102h-271v129h-4q-42 -77 -102 -117.5t-115 -40.5q-36 0 -61 17v-348h-283v1462h283v-760q0 -82 28.5 -118t92.5 -36q149 0 149 183z" />
    <glyph glyph-name="pi" unicode="&#x3c0;" horiz-adv-x="1083" 
d="M1040 854h-122v-569q0 -177 24 -285h-233q-33 65 -33 279v575h-234q-7 -188 -38.5 -441.5t-77.5 -412.5h-232q46 184 77.5 434t33.5 420q-101 0 -168 -18l-27 170q85 67 299 67h748z" />
    <glyph glyph-name="endash" unicode="&#x2013;" horiz-adv-x="1024" 
d="M0 477v230h1024v-230h-1024z" />
    <glyph glyph-name="emdash" unicode="&#x2014;" horiz-adv-x="2048" 
d="M0 477v230h2048v-230h-2048z" />
    <glyph glyph-name="quoteleft" unicode="&#x2018;" horiz-adv-x="532" 
d="M131 805v266q0 69 7 122.5t25 102.5t48 82.5t78 55.5t112 28v-143q-51 -9 -78.5 -55t-27.5 -107v-33h106v-319h-270z" />
    <glyph glyph-name="quoteright" unicode="&#x2019;" horiz-adv-x="532" 
d="M401 1462v-266q0 -69 -7 -122.5t-25 -102.5t-48 -82.5t-78 -55.5t-112 -28v143q51 9 79 55t28 107v33h-107v319h270z" />
    <glyph glyph-name="quotesinglbase" unicode="&#x201a;" horiz-adv-x="532" 
d="M131 319h270v-266q0 -69 -7 -122.5t-25 -102.5t-48 -82.5t-78 -55.5t-112 -28v143q51 9 79 55t28 107v33h-107v319z" />
    <glyph glyph-name="quotedblleft" unicode="&#x201c;" horiz-adv-x="948" 
d="M539 805v266q0 69 7 122.5t25 102.5t48 82.5t78 55.5t112 28v-143q-51 -9 -79 -55t-28 -107v-33h107v-319h-270zM139 805v266q0 87 12 151t41 117.5t83.5 84.5t134.5 38v-143q-51 -9 -79 -55t-28 -107v-33h107v-319h-271z" />
    <glyph glyph-name="quotedblright" unicode="&#x201d;" horiz-adv-x="948" 
d="M139 1143v319h271v-266q0 -87 -12 -151t-41 -117.5t-83.5 -84.5t-134.5 -38v143q51 9 79 55t28 107v33h-107zM539 1143v319h270v-266q0 -69 -7 -122.5t-25 -102.5t-48 -82.5t-78 -55.5t-112 -28v143q51 9 78.5 55t27.5 107v33h-106z" />
    <glyph glyph-name="quotedblbase" unicode="&#x201e;" horiz-adv-x="948" 
d="M539 0v319h270v-266q0 -69 -7 -122.5t-25 -102.5t-48 -82.5t-78 -55.5t-112 -28v143q51 9 78.5 55t27.5 107v33h-106zM139 0v319h271v-266q0 -87 -12 -151t-41 -117.5t-83.5 -84.5t-134.5 -38v143q51 9 79 55t28 107v33h-107z" />
    <glyph glyph-name="dagger" unicode="&#x2020;" 
d="M350 1057v405h283v-405h344v-230h-344v-1110h-283v1110h-344v230h344z" />
    <glyph glyph-name="daggerdbl" unicode="&#x2021;" 
d="M350 -283v389h-344v230h344v508h-344v229h344v389h283v-389h344v-229h-344v-508h344v-230h-344v-389h-283z" />
    <glyph glyph-name="bullet" unicode="&#x2022;" horiz-adv-x="1024" 
d="M147 731q0 151 107 258t258 107t258 -107t107 -258t-107 -257.5t-258 -106.5t-258 106.5t-107 257.5z" />
    <glyph glyph-name="ellipsis" unicode="&#x2026;" horiz-adv-x="2048" 
d="M207 319h270v-319h-270v319zM889 319h270v-319h-270v319zM1571 319h270v-319h-270v319z" />
    <glyph glyph-name="perthousand" unicode="&#x2030;" horiz-adv-x="2238" 
d="M1786 371q0 -54 1.5 -88t6.5 -67t15 -50.5t26.5 -28t40.5 -10.5q57 0 73.5 54.5t16.5 189.5q0 62 -2.5 98t-11.5 68.5t-27.5 46.5t-48.5 14t-48.5 -14t-27.5 -46.5t-11.5 -68.5t-2.5 -98zM1569 362q0 105 12.5 173.5t45.5 120.5t94 75t155 23t155 -23t94 -75t45.5 -120.5
t12.5 -173.5t-12.5 -173.5t-45.5 -120t-94 -74.5t-155 -23t-155 23t-94 74.5t-45.5 120t-12.5 173.5zM55 1059q0 105 12.5 173.5t45.5 120t94 74.5t155 23t155 -23t94.5 -74.5t46 -120t12.5 -173.5t-12.5 -173.5t-46 -120t-94.5 -74.5t-155 -23t-155 23t-94 74.5t-45.5 120
t-12.5 173.5zM272 1067q0 -54 1.5 -88t6.5 -67t15 -50.5t26.5 -28t40.5 -10.5q57 0 74 54.5t17 189.5q0 122 -17 174.5t-74 52.5q-30 0 -48.5 -14t-27.5 -46.5t-11.5 -68.5t-2.5 -98zM877 362q0 105 12.5 173.5t45.5 120.5t94 75t155 23t155 -23t94 -75t45.5 -120.5
t12.5 -173.5t-12.5 -173.5t-45.5 -120t-94 -74.5t-155 -23t-155 23t-94 74.5t-45.5 120t-12.5 173.5zM1094 371q0 -54 1.5 -88t6.5 -67t15 -50.5t26.5 -28t40.5 -10.5q57 0 73.5 54.5t16.5 189.5q0 62 -2.5 98t-11.5 68.5t-27.5 46.5t-48.5 14t-48.5 -14t-27.5 -46.5
t-11.5 -68.5t-2.5 -98zM262 -63l832 1548h182l-832 -1548h-182z" />
    <glyph glyph-name="guilsinglleft" unicode="&#x2039;" horiz-adv-x="493" 
d="M94 426v332l305 246v-271l-161 -141l161 -141v-271z" />
    <glyph glyph-name="guilsinglright" unicode="&#x203a;" horiz-adv-x="493" 
d="M94 180v271l162 141l-162 141v271l305 -246v-332z" />
    <glyph glyph-name="fraction" unicode="&#x2044;" horiz-adv-x="342" 
d="M-336 -63l832 1548h182l-832 -1548h-182z" />
    <glyph glyph-name="Euro" unicode="&#x20ac;" 
d="M981 1354l-94 -205q-98 104 -203 104q-117 0 -160 -100q-26 -65 -35 -201h345l-60 -159h-291v-105h271l-60 -160h-207q6 -157 27 -221q40 -125 156 -125q106 0 264 137v-256q-157 -92 -309 -92q-415 0 -430 557h-142l60 160h77l3 105h-140l62 159h84q43 504 467 504
q183 0 315 -102z" />
    <glyph glyph-name="afii61289" unicode="&#x2113;" horiz-adv-x="919" 
d="M795 350l94 -100q-125 -273 -367 -273q-84 0 -148 27.5t-102 76.5t-58 108t-24 130v25q-17 -15 -51.5 -45t-42.5 -37l-57 133q19 18 50.5 47t55 51.5t43.5 45.5v524q0 246 94 374t236 128q122 0 184 -98.5t62 -260.5q0 -319 -342 -694l2 -106q0 -113 42 -171.5t112 -58.5
q63 0 118.5 49.5t98.5 124.5zM422 1042v-294q93 124 148 248.5t55 226.5q0 79 -22 119t-73 40q-21 0 -39.5 -16.5t-34.5 -53t-25 -105.5t-9 -165z" />
    <glyph glyph-name="trademark" unicode="&#x2122;" horiz-adv-x="2027" 
d="M1724 614v582h-4l-194 -582h-205l-195 582h-4v-582h-217v848h346l170 -512h4l170 512h347v-848h-218zM293 614v656h-230v192h689v-192h-230v-656h-229z" />
    <glyph glyph-name="Omega" unicode="&#x2126;" horiz-adv-x="1226" 
d="M295 207v6q-90 106 -149.5 255t-59.5 325q0 179 65.5 328t188.5 238t278 89q100 0 186 -38.5t145.5 -102.5t101.5 -147t62 -172t20 -177q0 -180 -61 -339t-148 -259v-6h235v-207h-461v150q80 66 135.5 220t55.5 382q0 130 -29 236t-93 174.5t-153 68.5q-130 0 -206 -136
t-76 -354q0 -212 56 -370.5t136 -220.5v-150h-463v207h234z" />
    <glyph glyph-name="estimated" unicode="&#x212e;" horiz-adv-x="1781" 
d="M1712 690h-1331q-10 0 -10 -8v-403q0 -28 18 -46q100 -103 229 -161t273 -58q156 0 293 65t237 179h117q-111 -131 -282.5 -208t-366.5 -77q-167 0 -318.5 58.5t-261 157t-174.5 235.5t-65 287t65 287t174.5 236t261 157.5t318.5 58.5q168 0 320 -58.5t262.5 -157.5
t175.5 -236t65 -287v-21zM1409 743v404q0 28 -18 49q-100 98 -228.5 153.5t-271.5 55.5q-142 0 -271 -58t-229 -159q-20 -17 -20 -49v-396q0 -14 10 -14h1020q8 0 8 14z" />
    <glyph glyph-name="partialdiff" unicode="&#x2202;" horiz-adv-x="1040" 
d="M193 1300l-66 197q142 113 328 113q78 0 149.5 -28.5t134.5 -90.5t109 -150.5t73 -217t27 -283.5q0 -404 -132 -631t-372 -227q-89 0 -162 42t-117.5 111t-68.5 153t-24 173q0 124 32 227t86 170t125 104t150 37q90 0 154.5 -44t91.5 -93h2v66q0 121 -35 227.5
t-102.5 175t-153.5 68.5q-126 0 -229 -99zM467 197h2q47 0 87.5 40.5t67.5 106.5t44.5 143t23.5 158q-15 54 -64 102t-118 48q-87 0 -143 -104t-56 -242q0 -109 42.5 -180.5t113.5 -71.5z" />
    <glyph glyph-name="Delta" unicode="&#x2206;" horiz-adv-x="1169" 
d="M49 0v150l402 1304h284l381 -1300v-154h-1067zM295 205h571l-180 571q-14 58 -52 193t-48 180h-4q-8 -42 -45 -166.5t-50 -177.5z" />
    <glyph glyph-name="product" unicode="&#x220f;" horiz-adv-x="1306" 
d="M1253 1194h-174v-1391h-241v1391h-371v-1391h-242v1391h-176v231h1204v-231z" />
    <glyph glyph-name="summation" unicode="&#x2211;" horiz-adv-x="997" 
d="M963 -197h-916v168l428 647l-416 629v178h875v-211h-559v-6l368 -542l-413 -619v-6h633v-238z" />
    <glyph glyph-name="minus" unicode="&#x2212;" horiz-adv-x="1228" 
d="M96 391v254h1037v-254h-1037z" />
    <glyph glyph-name="uni2215" unicode="&#x2215;" horiz-adv-x="342" 
d="M-336 -63l832 1548h182l-832 -1548h-182z" />
    <glyph glyph-name="uni2219" unicode="&#x2219;" horiz-adv-x="491" 
d="M47 578q0 83 58 140.5t141 57.5t140.5 -57.5t57.5 -140.5t-57.5 -141t-140.5 -58t-141 58t-58 141z" />
    <glyph glyph-name="radical" unicode="&#x221a;" horiz-adv-x="1083" 
d="M1090 1716l-402 -1995h-192l-260 891l-136 -53l-39 143l322 129l172 -614q6 -35 19 -100.5t16 -87.5l4 -4q22 165 29 204l301 1487h166z" />
    <glyph glyph-name="infinity" unicode="&#x221e;" horiz-adv-x="1478" 
d="M1386 590v-2q0 -152 -91 -243t-216 -91q-89 0 -168 47t-168 168q-84 -105 -164.5 -160t-187.5 -55q-122 0 -211.5 91.5t-89.5 232.5q0 146 90 238.5t228 92.5q99 0 180 -53.5t160 -157.5q3 4 23.5 27t26.5 29.5t26 27.5t29.5 29t30.5 25t35.5 24.5t36.5 19t42 16.5
t44.5 9t49.5 4q127 -2 210.5 -89.5t83.5 -229.5zM408 389h4q30 0 60.5 11.5t52 25.5t51.5 43.5t45 46.5t47 55q-76 100 -104 129q-75 74 -163 74q-81 0 -126.5 -55t-45.5 -144q0 -77 52 -131.5t127 -54.5zM1077 774h-2q-24 0 -46.5 -6t-45.5 -20.5t-38.5 -24.5t-38.5 -34.5
t-31.5 -33.5t-31.5 -37.5t-26 -31.5q90 -114 144 -155.5t124 -41.5q73 0 117.5 59.5t44.5 129.5q0 86 -46.5 141t-123.5 55z" />
    <glyph glyph-name="integral" unicode="&#x222b;" horiz-adv-x="763" 
d="M707 1743l-25 -178q-36 16 -64 16q-56 0 -90 -51q-49 -69 -49 -344q0 -163 13.5 -477.5t13.5 -503.5q0 -277 -66 -412q-36 -75 -102.5 -110t-144.5 -35q-84 0 -142 30l31 185q47 -21 76 -21q54 0 78 41q47 71 47 316q0 191 -13.5 514t-13.5 495q0 180 25.5 286t85.5 175
q38 46 98.5 70t126.5 24q69 0 115 -20z" />
    <glyph glyph-name="approxequal" unicode="&#x2248;" horiz-adv-x="997" 
d="M840 903l86 -76q-42 -91 -107 -147.5t-141 -56.5q-52 0 -95 16.5t-108 58.5q-48 34 -82.5 50t-73.5 16q-29 0 -52 -10t-44.5 -34.5t-32.5 -40.5t-32 -52l-88 73q40 91 109.5 147t154.5 56q22 0 43.5 -4t36.5 -8t34.5 -13.5t28.5 -14.5t27 -16t22 -13q7 -5 25 -16t25 -15
t21.5 -12.5t22.5 -11.5t19.5 -7.5t21.5 -6t21 -1.5q48 0 82 34t76 105zM840 545l86 -76q-41 -90 -106 -146.5t-144 -56.5q-50 0 -92.5 16.5t-108.5 57.5q-37 25 -55 36t-46 21.5t-55 10.5q-19 0 -36 -4.5t-33 -17.5t-25.5 -21t-25 -31.5t-20 -30.5t-21.5 -35l-88 76
q40 90 109.5 145.5t152.5 55.5q22 0 44 -4t37 -8t35.5 -13.5t28 -13.5t27.5 -16t22 -13l28 -17.5l28 -17.5t24 -14t26 -12.5t23.5 -6.5t26.5 -3q48 0 82 34t76 105z" />
    <glyph glyph-name="notequal" unicode="&#x2260;" horiz-adv-x="997" 
d="M737 1018l-69 -166h239v-145h-291l-106 -258h397v-144h-448l-88 -211l-111 43l70 168h-242v144h293l106 258h-399v145h451l86 207z" />
    <glyph glyph-name="lessequal" unicode="&#x2264;" horiz-adv-x="997" 
d="M903 203l-805 432v158l803 432v-172l-665 -336v-4l667 -338v-172zM911 -18h-819v147h819v-147z" />
    <glyph glyph-name="greaterequal" unicode="&#x2265;" horiz-adv-x="997" 
d="M102 1225l805 -432v-158l-803 -432v172l666 338v4l-668 336v172zM909 -18h-817v147h817v-147z" />
    <glyph glyph-name="lozenge" unicode="&#x25ca;" horiz-adv-x="1083" 
d="M989 713l-356 -807h-199l-340 807l355 807h198zM772 707l-188 464q-26 75 -35 136h-8q-14 -71 -37 -136l-195 -454l193 -473q21 -68 33 -129h8q13 69 32 125z" />
    </font>
</defs>
</svg>
