<?xml version="1.0" standalone="no"?>
<!DOCTYPE svg PUBLIC "-//W3C//DTD SVG 1.1//EN" "http://www.w3.org/Graphics/SVG/1.1/DTD/svg11.dtd" >
<svg xmlns="http://www.w3.org/2000/svg" xmlns:xlink="http://www.w3.org/1999/xlink" version="1.1">
<metadata>
Created by FontForge 20170731 at Sat Jul  1 12:55:44 2023
 By Aleksey,,,
Copyright (c) 1990, 1991, 2002 Adobe Systems Incorporated.  All Rights Reserved. (c) 1981, 2002 Heidelberger Druckmaschinen AG. All rights reserved.
</metadata>
<defs>
<font id="font__helvetica-rounded-lt-st--700" horiz-adv-x="491" >
  <font-face 
    font-family="font__helvetica-rounded-lt-st"
    font-weight="700"
    font-stretch="condensed"
    units-per-em="2048"
    panose-1="2 15 7 6 3 7 3 4 2 4"
    ascent="1501"
    descent="-547"
    x-height="1108"
    cap-height="1501"
    bbox="-225 -442 2028 1976"
    underline-thickness="102"
    underline-position="-307"
    unicode-range="U+0020-FB02"
  />
<missing-glyph horiz-adv-x="1024" 
d="M0 0v1434h1024v-1434h-1024zM512 809l348 522h-696zM573 717l349 -522v1044zM164 102h696l-348 523zM102 1239v-1044l349 522z" />
    <glyph glyph-name="fi" unicode="fi" horiz-adv-x="1024" 
d="M653 123v862q0 75 33 112.5t92 37.5t92 -37.5t33 -112.5v-862q0 -75 -33 -112.5t-92 -37.5t-92 37.5t-33 112.5zM635 1366q0 60 41.5 101.5t101.5 41.5t102 -41.5t42 -101.5t-42 -101.5t-102 -41.5t-101.5 41.5t-41.5 101.5zM137 123v799h-26q-57 0 -84 21t-27 71
q0 51 27 72.5t84 21.5h26v147q0 137 65.5 191.5t209.5 54.5q63 0 94 -26.5t31 -83.5q0 -38 -19.5 -61.5t-56.5 -24.5q-44 -1 -59 -22t-15 -73v-102h39q57 0 84 -21.5t27 -72.5q0 -50 -27 -71t-84 -21h-39v-799q0 -75 -33 -112.5t-92 -37.5t-92 37.5t-33 112.5z" />
    <glyph glyph-name="fl" unicode="fl" horiz-adv-x="1024" 
d="M653 123v1229q0 74 33 111.5t92 37.5t92 -37.5t33 -111.5v-1229q0 -75 -33 -112.5t-92 -37.5t-92 37.5t-33 112.5zM137 123v799h-26q-57 0 -84 21t-27 71q0 51 27 72.5t84 21.5h26v147q0 137 65.5 191.5t209.5 54.5q63 0 94 -26.5t31 -83.5q0 -38 -19.5 -61.5
t-56.5 -24.5q-44 -1 -59 -22t-15 -73v-102h39q57 0 84 -21.5t27 -72.5q0 -50 -27 -71t-84 -21h-39v-799q0 -75 -33 -112.5t-92 -37.5t-92 37.5t-33 112.5z" />
    <glyph glyph-name=".notdef" horiz-adv-x="1024" 
d="M0 0v1434h1024v-1434h-1024zM512 809l348 522h-696zM573 717l349 -522v1044zM164 102h696l-348 523zM102 1239v-1044l349 522z" />
    <glyph glyph-name=".null" horiz-adv-x="0" 
 />
    <glyph glyph-name="nonmarkingreturn" horiz-adv-x="682" 
 />
    <glyph glyph-name="space" unicode=" " 
 />
    <glyph glyph-name="exclam" unicode="!" horiz-adv-x="569" 
d="M147 1042v316q0 67 34.5 105t103.5 38q68 0 102.5 -38t34.5 -105v-316q0 -59 -8 -143l-39 -434q-5 -59 -23 -84t-67 -25t-67 25t-23 84l-39 434q-9 95 -9 143zM129 129q0 65 45.5 110.5t110.5 45.5q64 0 109.5 -45.5t45.5 -110.5t-45.5 -110.5t-109.5 -45.5
q-65 0 -110.5 45.5t-45.5 110.5z" />
    <glyph glyph-name="quotedbl" unicode="&#x22;" horiz-adv-x="872" 
d="M520 1071v309q0 56 34.5 92.5t82.5 36.5t82.5 -36.5t34.5 -92.5v-309q0 -56 -34.5 -92.5t-82.5 -36.5t-82.5 36.5t-34.5 92.5zM119 1071v309q0 56 34.5 92.5t82.5 36.5t82 -36.5t34 -92.5v-309q0 -56 -34 -92.5t-82 -36.5t-82.5 36.5t-34.5 92.5z" />
    <glyph glyph-name="numbersign" unicode="#" horiz-adv-x="983" 
d="M537 403h-177l-43 -321q-5 -51 -29 -80t-81 -29q-35 0 -59.5 25.5t-24.5 60.5q0 10 8 68l39 276h-80q-46 0 -68 29.5t-22 69.5t22 69t68 29h105l32 248h-80q-46 0 -68 29t-22 69t22 69t68 29h105l41 322q7 51 31 80t79 29q36 0 61 -25t25 -61q0 -10 -8 -68l-37 -277h177
l43 322q5 51 29 80t81 29q35 0 59.5 -25.5t24.5 -60.5q0 -10 -8 -68l-39 -277h80q46 0 69 -29t23 -69t-23 -69t-69 -29h-105l-32 -248h80q46 0 68 -29t22 -69t-22 -69.5t-68 -29.5h-105l-41 -321q-7 -51 -31 -80t-79 -29q-36 0 -61 25t-25 61q0 10 8 68zM563 600l31 248
h-176l-31 -248h176z" />
    <glyph glyph-name="dollar" unicode="$" horiz-adv-x="983" 
d="M440 170v446l-131 84q-225 144 -225 390q0 165 95.5 273t260.5 112v53q0 55 47 55q48 0 48 -55v-53q143 0 241 -86.5t98 -223.5q0 -51 -31 -84.5t-81 -33.5q-60 0 -84.5 29.5t-36.5 90.5q-11 55 -40.5 83t-65.5 28v-404l118 -69q126 -73 193 -167.5t67 -231.5
q0 -197 -98.5 -310.5t-279.5 -122.5v-157q0 -54 -48 -54q-47 0 -47 54v157q-160 0 -265 104.5t-105 260.5q0 60 28.5 99.5t83.5 39.5q54 0 84 -32.5t37 -102.5q16 -161 137 -172zM440 926v352q-60 -10 -91.5 -53t-31.5 -109q0 -56 24 -93t99 -97zM535 567v-397
q58 9 93.5 63.5t35.5 124.5q0 74 -31.5 123.5t-97.5 85.5z" />
    <glyph glyph-name="percent" unicode="%" horiz-adv-x="1781" 
d="M90 1102q0 183 70.5 278t245.5 95t245 -95t70 -278t-70 -278t-245 -95t-245.5 95t-70.5 278zM297 1147v-68q0 -97 25.5 -145.5t83.5 -48.5t83 48.5t25 145.5v68q0 51 -7.5 86t-32.5 60.5t-68 25.5q-109 0 -109 -172zM1061 346q0 183 70 278t245 95t245.5 -95t70.5 -278
t-70.5 -278t-245.5 -95t-245 95t-70 278zM1268 391v-67q0 -98 25 -146.5t83 -48.5t83.5 49t25.5 146v67q0 172 -109 172q-43 0 -68 -25.5t-32.5 -60.5t-7.5 -86zM506 45l620 1428q24 53 88 53q34 0 53 -19t19 -45q0 -32 -12 -59l-621 -1428q-24 -53 -88 -53q-34 0 -52.5 19
t-18.5 45q0 32 12 59z" />
    <glyph glyph-name="ampersand" unicode="&#x26;" horiz-adv-x="1290" 
d="M719 825l180 -309q24 64 45 195q9 57 34.5 80.5t74.5 23.5q56 0 82 -34.5t26 -92.5q0 -75 -39.5 -195t-87.5 -204l58 -94q41 -66 41 -111q0 -53 -38.5 -86t-93.5 -33q-60 0 -106 70l-37 53q-121 -115 -311 -115q-195 0 -306.5 118.5t-111.5 311.5q0 150 71.5 263.5
t209.5 203.5q-117 187 -117 297q0 141 94 224.5t242 83.5q150 0 230.5 -81.5t80.5 -197.5q0 -106 -58 -203.5t-163 -167.5zM754 272l-232 402q-63 -46 -103 -112.5t-40 -127.5q0 -102 59.5 -173t141.5 -71q53 0 92.5 18.5t81.5 63.5zM553 1106l55 -94l27 24q49 44 68.5 78
t19.5 84q0 43 -27.5 71.5t-68.5 28.5q-43 0 -72 -26t-29 -64q0 -55 27 -102z" />
    <glyph glyph-name="quotesingle" unicode="'" horiz-adv-x="454" 
d="M111 1071v309q0 56 34 92.5t82 36.5t82.5 -36.5t34.5 -92.5v-309q0 -56 -34.5 -92.5t-82.5 -36.5t-82 36.5t-34 92.5z" />
    <glyph glyph-name="parenleft" unicode="(" horiz-adv-x="606" 
d="M104 567q0 167 28 325.5t71.5 273.5t94 203t98 132.5t81.5 44.5q88 0 88 -90q0 -17 -20.5 -62t-49.5 -116t-58 -164.5t-49.5 -238.5t-20.5 -308t20.5 -308t49.5 -238.5t58 -164.5t49.5 -116t20.5 -62q0 -90 -88 -90q-34 0 -81.5 44.5t-98 132.5t-94 203t-71.5 273.5
t-28 325.5z" />
    <glyph glyph-name="parenright" unicode=")" horiz-adv-x="606" 
d="M502 567q0 -167 -28 -325.5t-71.5 -273.5t-94 -203t-98 -132.5t-81.5 -44.5q-88 0 -88 90q0 17 20.5 62t49.5 116t58.5 164.5t50 238.5t20.5 308t-20.5 308t-50 238.5t-58.5 164.5t-49.5 116t-20.5 62q0 90 88 90q34 0 81.5 -44.5t98 -132.5t94 -203t71.5 -273.5
t28 -325.5z" />
    <glyph glyph-name="asterisk" unicode="*" horiz-adv-x="757" 
d="M453 1266l139 45q83 29 104 -41q23 -68 -61 -96l-139 -46l86 -118q53 -70 -7 -113q-56 -43 -110 29l-86 118l-86 -118q-55 -72 -111 -29q-59 42 -6 113l86 118l-139 48q-85 26 -62 94q21 70 107 41l139 -45v147q0 88 72 88t72 -88v-147h2z" />
    <glyph glyph-name="plus" unicode="+" horiz-adv-x="1228" 
d="M506 688v328q0 62 31 102.5t77 40.5t77.5 -40.5t31.5 -102.5v-328h328q63 0 103 -31.5t40 -76.5t-40 -77t-103 -32h-328v-328q0 -62 -31.5 -102.5t-77.5 -40.5t-77 40.5t-31 102.5v328h-328q-63 0 -103 32t-40 77t40 76.5t103 31.5h328z" />
    <glyph glyph-name="comma" unicode="," 
d="M82 123q0 67 46.5 114.5t117.5 47.5q79 0 121.5 -60.5t42.5 -136.5q0 -154 -89.5 -262.5t-183.5 -108.5q-24 0 -39.5 16t-15.5 36q0 23 11 34.5t42 22.5q42 14 87.5 56.5t56.5 92.5q-18 -2 -43 -2q-76 0 -115 48.5t-39 101.5z" />
    <glyph glyph-name="hyphen" unicode="-" horiz-adv-x="681" 
d="M475 463h-268q-62 0 -94.5 33.5t-32.5 83.5q0 49 32.5 82.5t94.5 33.5h268q62 0 94.5 -33.5t32.5 -82.5q0 -50 -32.5 -83.5t-94.5 -33.5z" />
    <glyph glyph-name="period" unicode="." 
d="M90 129q0 65 46 110.5t110 45.5t109.5 -45.5t45.5 -110.5t-45.5 -110.5t-109.5 -45.5t-110 45.5t-46 110.5z" />
    <glyph glyph-name="slash" unicode="/" horiz-adv-x="681" 
d="M6 111l469 1308q14 38 45.5 64t69.5 26q40 0 69 -20t29 -53q0 -42 -12 -72l-469 -1309q-14 -38 -45.5 -64t-69.5 -26q-40 0 -69 20.5t-29 53.5q0 42 12 72z" />
    <glyph glyph-name="zero" unicode="0" horiz-adv-x="983" 
d="M354 1010v-572q0 -147 28.5 -207.5t109.5 -60.5q80 0 108.5 60.5t28.5 207.5v572q0 148 -28 208t-109 60t-109.5 -60t-28.5 -208zM80 475v496q0 57 2.5 103t12.5 100.5t27.5 95.5t48.5 81t74 66t105.5 42t141.5 16t141.5 -16t105 -42t74 -66t48.5 -81t27 -95.5t12.5 -100
t2.5 -103.5v-496q0 -57 -2.5 -102.5t-12.5 -99.5t-27 -95t-48.5 -81t-74 -66t-105 -42t-141.5 -16t-141.5 16t-105.5 42t-74 66t-48.5 81t-27.5 95t-12.5 99.5t-2.5 102.5z" />
    <glyph glyph-name="one" unicode="1" horiz-adv-x="681" 
d="M279 1034h-191q-117 0 -117 84q0 77 86 92q115 20 176 59.5t99 112.5q37 70 58.5 87.5t74.5 17.5q37 0 62.5 -27.5t25.5 -83.5v-1261q0 -63 -40 -102.5t-97 -39.5t-97 39.5t-40 102.5v919z" />
    <glyph glyph-name="two" unicode="2" horiz-adv-x="983" 
d="M762 0h-567q-62 0 -91.5 28t-29.5 89q0 45 12 99.5t40 125.5t85 154t137 163l96 97q105 106 142 174t37 153q0 86 -35.5 135.5t-102.5 49.5q-73 0 -105 -50.5t-40 -150.5q-4 -58 -39 -87.5t-86 -29.5q-69 0 -97 44t-28 108q0 167 103 270t282 103q205 0 313.5 -100.5
t108.5 -295.5q0 -215 -180 -395l-170 -170q-82 -82 -126 -148t-63 -133h404q74 0 110.5 -26t36.5 -90t-37 -90.5t-110 -26.5z" />
    <glyph glyph-name="three" unicode="3" horiz-adv-x="983" 
d="M68 348q0 76 32 120t93 44t97 -38.5t40 -115.5q10 -188 151 -188q148 0 148 254q0 63 -7.5 107.5t-20 72.5t-35 44.5t-47 23.5t-60.5 10q-82 9 -111 30t-29 66q0 44 25 65t102 34q88 15 121 62.5t33 166.5q0 76 -30.5 124t-98.5 48q-109 0 -131 -137q-17 -125 -133 -125
q-55 0 -86 34.5t-31 90.5q0 149 95.5 241.5t281.5 92.5q210 0 308.5 -103t98.5 -276q0 -114 -41.5 -193.5t-125.5 -109.5q111 -41 153.5 -127.5t42.5 -239.5q0 -453 -426 -453q-99 0 -175.5 27.5t-119.5 68.5t-70 94.5t-35.5 97.5t-8.5 87z" />
    <glyph glyph-name="four" unicode="4" horiz-adv-x="983" 
d="M522 512v592h-4l-272 -592h276zM522 123v172h-348q-75 0 -112 26t-37 87q0 59 41 145l399 833q30 62 64 81.5t104 19.5q71 0 105 -36t34 -93v-846h47q44 0 78.5 -26.5t34.5 -82.5t-34.5 -82t-78.5 -26h-47v-172q0 -75 -33 -112.5t-92 -37.5t-92 37.5t-33 112.5z" />
    <glyph glyph-name="five" unicode="5" horiz-adv-x="983" 
d="M344 1214l-18 -296q77 77 219 77q80 0 141.5 -23t112 -75.5t77.5 -149.5t27 -235q0 -99 -10 -175t-38 -147t-74 -116.5t-122 -73t-178 -27.5q-85 0 -152.5 19t-109.5 52t-71 70.5t-43 81t-19.5 76.5t-5.5 64q0 69 30.5 114.5t96.5 45.5t99 -37t36 -97q5 -92 37 -142
t102 -50q86 0 117 71.5t31 231.5q0 179 -36.5 252.5t-127.5 73.5q-35 0 -60 -15t-40.5 -36.5t-32 -43t-46 -36.5t-71.5 -15q-57 0 -86 35.5t-29 85.5q0 10 4 68l27 504q2 45 24 73.5t66 28.5h498q73 0 110 -26.5t37 -90.5t-37 -90.5t-110 -26.5h-375z" />
    <glyph glyph-name="six" unicode="6" horiz-adv-x="983" 
d="M74 649v156q0 131 11 229.5t39.5 184.5t76 140t122.5 85t177 31q176 0 269 -70t93 -174q0 -54 -33 -86.5t-88 -32.5q-44 0 -67.5 16.5t-52.5 69.5q-30 50 -50.5 65t-64.5 15q-85 0 -121.5 -74.5t-36.5 -216.5v-84q85 82 215 82q346 0 346 -463q0 -94 -10 -169.5
t-37 -148.5t-72 -122t-119 -79t-173 -30q-63 0 -115.5 10.5t-92.5 28.5t-72 48t-54.5 63t-38.5 80t-26 93t-15.5 107t-7.5 117t-2 129zM348 477q0 -160 30 -233.5t114 -73.5t113.5 73.5t29.5 233.5q0 158 -29.5 229.5t-113.5 71.5t-114 -71.5t-30 -229.5z" />
    <glyph glyph-name="seven" unicode="7" horiz-adv-x="909" 
d="M618 1202h-468q-62 0 -96 39.5t-34 81.5q0 44 33.5 84.5t96.5 40.5h628q68 0 99.5 -21t31.5 -81q0 -20 -14 -56t-66 -135q-102 -197 -192 -499t-113 -541q-6 -66 -44.5 -104t-104.5 -38q-64 0 -94.5 39t-30.5 103q0 147 114.5 496.5t253.5 590.5z" />
    <glyph glyph-name="eight" unicode="8" horiz-adv-x="983" 
d="M346 485v-108q0 -44 6 -78t21 -64.5t45 -47.5t74 -17t73.5 17t44.5 47.5t21 64.5t6 78v108q0 28 -3 54t-12.5 55t-25 49.5t-42.5 34.5t-62 14t-62 -14t-42.5 -34.5t-25.5 -49.5t-13 -55t-3 -54zM358 1083q0 -41 5 -72t18.5 -60.5t41.5 -45.5t69 -16t69 16t41 46t18 60.5
t5 71.5q0 40 -5 71t-18 61t-41 46.5t-69 16.5q-67 0 -100.5 -52t-33.5 -143zM72 410q0 137 41 233t145 145q-87 44 -124.5 116.5t-37.5 178.5q0 187 99.5 289.5t296.5 102.5t296 -102.5t99 -289.5q0 -106 -37.5 -178.5t-124.5 -116.5q104 -49 145 -145t41 -233
q0 -69 -9 -125.5t-36 -117t-71.5 -101t-122 -67t-180.5 -26.5t-180.5 26.5t-122.5 67t-72 100.5t-36 117t-9 126z" />
    <glyph glyph-name="nine" unicode="9" horiz-adv-x="983" 
d="M909 799v-156q0 -131 -11 -229.5t-39.5 -184.5t-76 -140t-122.5 -85t-177 -31q-176 0 -269 70t-93 174q0 54 33 86.5t88 32.5q44 0 67.5 -16.5t52.5 -69.5q30 -50 50.5 -65t64.5 -15q85 0 121.5 74.5t36.5 216.5v84q-85 -82 -215 -82q-346 0 -346 463q0 94 10 169.5
t37 148.5t72 122t119 79t173 30q63 0 115.5 -10.5t92.5 -28.5t72 -48t54.5 -63t38.5 -80t26 -93t15.5 -107t7.5 -117t2 -129zM348 971q0 -158 30 -229.5t114 -71.5t113.5 71.5t29.5 229.5q0 160 -29.5 233.5t-113.5 73.5t-114 -73.5t-30 -233.5z" />
    <glyph glyph-name="colon" unicode=":" 
d="M90 952q0 64 46 110t110 46t109.5 -45.5t45.5 -110.5q0 -64 -45.5 -109.5t-109.5 -45.5q-65 0 -110.5 45.5t-45.5 109.5zM90 129q0 65 46 110.5t110 45.5t109.5 -45.5t45.5 -110.5t-45.5 -110.5t-109.5 -45.5t-110 45.5t-46 110.5z" />
    <glyph glyph-name="semicolon" unicode=";" 
d="M82 123q0 67 46.5 114.5t117.5 47.5q79 0 121.5 -60.5t42.5 -136.5q0 -154 -89.5 -262.5t-183.5 -108.5q-24 0 -39.5 16t-15.5 36q0 23 11 34.5t42 22.5q42 14 87.5 56.5t56.5 92.5q-18 -2 -43 -2q-76 0 -115 48.5t-39 101.5zM90 952q0 64 46 110t110 46t109.5 -45.5
t45.5 -110.5q0 -64 -45.5 -109.5t-109.5 -45.5q-65 0 -110.5 45.5t-45.5 109.5z" />
    <glyph glyph-name="less" unicode="&#x3c;" horiz-adv-x="1228" 
d="M956 80l-833 383q-33 15 -54.5 47.5t-21.5 69.5t21.5 69t54.5 47l833 383q59 29 113 29q47 0 80 -25.5t33 -52.5q0 -36 -19.5 -66t-77.5 -55l-751 -329l751 -330q58 -25 77.5 -55t19.5 -66q0 -27 -33 -52.5t-80 -25.5q-54 0 -113 29z" />
    <glyph glyph-name="equal" unicode="=" horiz-adv-x="1228" 
d="M1051 713h-873q-63 0 -103 31.5t-40 76.5t40 77t103 32h873q63 0 103 -32t40 -77t-40 -76.5t-103 -31.5zM1051 229h-873q-63 0 -103 32t-40 77t40 76.5t103 31.5h873q63 0 103 -31.5t40 -76.5t-40 -77t-103 -32z" />
    <glyph glyph-name="greater" unicode="&#x3e;" horiz-adv-x="1228" 
d="M143 250l752 330l-752 329q-58 25 -77 54.5t-19 66.5q0 27 33 52.5t80 25.5q53 0 112 -29l834 -383q33 -15 54.5 -47t21.5 -69t-21.5 -69.5t-54.5 -47.5l-834 -383q-59 -29 -112 -29q-47 0 -80 25.5t-33 52.5q0 37 19 66.5t77 54.5z" />
    <glyph glyph-name="question" unicode="?" horiz-adv-x="985" 
d="M412 788l73 84q68 78 92.5 140.5t24.5 124.5q0 69 -33 113t-94 44q-48 0 -81 -30t-40 -82q-9 -75 -38 -105t-89 -30q-56 0 -89.5 33.5t-33.5 90.5q0 145 97 237.5t264 92.5q197 0 298 -96.5t101 -286.5q0 -99 -37 -178.5t-116 -167.5l-60 -65q-69 -75 -93.5 -122
t-31.5 -122q-5 -47 -34 -77t-82 -30q-51 0 -84 34.5t-33 94.5q0 74 30 154.5t89 148.5zM254 129q0 65 46 110.5t110 45.5t109.5 -45.5t45.5 -110.5t-45.5 -110.5t-109.5 -45.5t-110 45.5t-46 110.5z" />
    <glyph glyph-name="at" unicode="@" horiz-adv-x="1638" 
d="M635 690q0 -79 34 -125.5t107 -46.5q105 0 165 63t60 158q0 75 -41 119.5t-118 44.5q-87 0 -147 -64t-60 -149zM1257 973l-69 -340q-10 -63 -10 -92q0 -39 41 -39q73 0 129.5 80t56.5 235q0 244 -151 375t-406 131q-154 0 -284.5 -77.5t-206.5 -213t-76 -297.5
q0 -181 78 -314.5t209.5 -201t297.5 -67.5q89 0 161.5 13.5t115.5 32t74.5 37.5t55.5 32.5t42 13.5q34 0 58 -21t24 -53q0 -28 -43.5 -68.5t-113 -79.5t-171.5 -66.5t-203 -27.5q-223 0 -410 97.5t-298 275t-111 397.5q0 162 64 306.5t172.5 246.5t257.5 161.5t313 59.5
q150 0 284 -44.5t234.5 -125t159.5 -201t59 -264.5q0 -96 -21.5 -178t-57 -139.5t-82.5 -103t-95 -73.5t-97.5 -46.5t-88 -25.5t-68.5 -7q-126 0 -143 88h-4q-82 -88 -229 -88q-127 0 -215.5 99.5t-88.5 283.5q0 113 57 218t152.5 170t200.5 65q89 0 147 -30.5t111 -98.5
l8 36q16 76 94 76q40 0 67.5 -24t27.5 -66q0 -14 -9 -57z" />
    <glyph glyph-name="A" unicode="A" horiz-adv-x="1062" 
d="M692 369h-338l-55 -267q-14 -70 -46 -99.5t-97 -29.5q-61 0 -95 32t-34 87q0 47 16 113l262 1104q27 116 69.5 154t155.5 38q105 0 152.5 -40t73.5 -152l260 -1096q20 -90 20 -113q0 -64 -39 -95.5t-96 -31.5q-75 0 -110.5 38t-55.5 141zM399 586h250l-121 612h-4z" />
    <glyph glyph-name="B" unicode="B" horiz-adv-x="1062" 
d="M115 147v1180q0 76 36 112t111 36h369q325 0 325 -381q0 -110 -41 -193t-112 -110q107 -39 150.5 -123t43.5 -211q0 -94 -20.5 -173.5t-63.5 -144.5t-119 -102t-178 -37h-354q-75 0 -111 35.5t-36 111.5zM389 668v-461h164q77 0 117.5 61.5t40.5 182.5q0 217 -162 217
h-160zM389 1268v-394h125q168 0 168 203q0 191 -147 191h-146z" />
    <glyph glyph-name="C" unicode="C" horiz-adv-x="1024" 
d="M82 606v234q0 195 27 324t86.5 205.5t145.5 108t214 31.5q196 0 305 -104.5t109 -263.5q0 -164 -140 -164q-77 0 -106 35t-41 131q-20 149 -127 149q-41 0 -67.5 -9.5t-51.5 -38t-38 -83t-21 -144t-8 -220.5v-82q0 -77 0.5 -125t3 -106t8 -93t14 -73.5t21.5 -60t31.5 -41
t43 -27t56.5 -7.5q53 0 93.5 44t43.5 106q6 130 35 177.5t112 47.5q69 0 104.5 -43t35.5 -119q0 -221 -118.5 -325.5t-328.5 -104.5q-70 0 -128.5 13t-101 34t-76 56t-55.5 69t-38 84.5t-24 90.5t-12.5 98t-5.5 97.5t-1 98.5z" />
    <glyph glyph-name="D" unicode="D" horiz-adv-x="1099" 
d="M389 1257v-1040h127q76 0 120.5 38t69.5 143t25 292v119q0 252 -41.5 350t-165.5 98h-135zM115 147v1180q0 76 36 112t111 36h359q211 0 304 -154.5t93 -491.5v-190q0 -639 -410 -639h-346q-75 0 -111 35.5t-36 111.5z" />
    <glyph glyph-name="E" unicode="E" horiz-adv-x="1024" 
d="M389 643v-397h422q73 0 108 -33.5t35 -89.5t-35 -89.5t-108 -33.5h-549q-75 0 -111 35.5t-36 111.5v1180q0 76 36 112t111 36h535q73 0 108 -33.5t35 -89.5t-35 -89.5t-108 -33.5h-408v-340h381q73 0 108 -33.5t35 -89.5t-35 -89.5t-108 -33.5h-381z" />
    <glyph glyph-name="F" unicode="F" horiz-adv-x="983" 
d="M389 643v-528q0 -63 -40 -102.5t-97 -39.5t-97 39.5t-40 102.5v1212q0 76 36 112t111 36h508q73 0 108 -33.5t35 -89.5t-35 -89.5t-108 -33.5h-381v-340h381q73 0 108 -33.5t35 -89.5t-35 -89.5t-108 -33.5h-381z" />
    <glyph glyph-name="G" unicode="G" horiz-adv-x="1062" 
d="M969 672v-586q0 -113 -107 -113q-53 0 -80.5 33.5t-27.5 87.5v39h-4q-89 -160 -275 -160q-95 0 -165 34t-113.5 93t-69.5 151t-35.5 194t-9.5 237v149q0 251 48 399t149 213.5t272 65.5q105 0 188 -31.5t131.5 -83.5t73.5 -114t25 -129q0 -164 -138 -164q-70 0 -99 39
t-38 137q-5 55 -42 92t-113 37q-40 0 -68.5 -15t-53 -56t-36.5 -123t-12 -205v-205q0 -281 36 -389.5t146 -108.5q86 0 121 76.5t35 222.5v84h-113q-55 0 -83 33t-28 84q0 117 119 117h229q73 0 105.5 -32.5t32.5 -102.5z" />
    <glyph glyph-name="H" unicode="H" horiz-adv-x="1138" 
d="M750 672h-361v-557q0 -63 -40 -102.5t-97 -39.5t-97 39.5t-40 102.5v1245q0 63 40 102t97 39t97 -39t40 -102v-471h361v471q0 63 40 102t97 39t97 -39t40 -102v-1245q0 -63 -40 -102.5t-97 -39.5t-97 39.5t-40 102.5v557z" />
    <glyph glyph-name="I" unicode="I" horiz-adv-x="528" 
d="M127 115v1245q0 63 40 102t97 39t97 -39t40 -102v-1245q0 -63 -40 -102.5t-97 -39.5t-97 39.5t-40 102.5z" />
    <glyph glyph-name="J" unicode="J" horiz-adv-x="909" 
d="M520 334v1026q0 63 40 102t97 39t97.5 -39t40.5 -102v-1032q0 -180 -96.5 -271.5t-284.5 -91.5q-365 0 -365 383q0 85 37.5 128.5t97.5 43.5q75 0 107.5 -47t32.5 -145q0 -146 94 -146q53 0 77.5 35t24.5 117z" />
    <glyph glyph-name="K" unicode="K" horiz-adv-x="1062" 
d="M115 115v1245q0 63 40 102t97 39t97 -39t40 -102v-541h4l328 596q27 49 55.5 67.5t71.5 18.5q57 0 97 -33.5t40 -85.5q0 -45 -37 -106l-268 -432l319 -658q29 -60 29 -94q0 -51 -39 -85t-106 -34q-60 0 -89 25t-59 86l-233 489l-113 -170v-288q0 -63 -40 -102.5
t-97 -39.5t-97 39.5t-40 102.5z" />
    <glyph glyph-name="L" unicode="L" horiz-adv-x="985" 
d="M389 246h412q73 0 108 -33.5t35 -89.5t-35 -89.5t-108 -33.5h-539q-75 0 -111 35.5t-36 111.5v1213q0 63 40 102t97 39t97 -39t40 -102v-1114z" />
    <glyph glyph-name="M" unicode="M" horiz-adv-x="1441" 
d="M119 115v1183q0 106 47 154.5t174 48.5q107 0 163.5 -48t80.5 -171l135 -709h4l135 709q24 123 80.5 171t163.5 48q127 0 174 -48.5t47 -154.5v-1183q0 -63 -40 -102.5t-97 -39.5t-97 39.5t-40 102.5v1059h-5l-225 -1111q-9 -43 -29 -66.5t-69 -23.5t-69 23.5t-29 66.5
l-226 1111h-4v-1059q0 -63 -40 -102.5t-97 -39.5t-97 39.5t-40 102.5z" />
    <glyph glyph-name="N" unicode="N" horiz-adv-x="1175" 
d="M115 115v1245q0 65 40 103t111 38t113.5 -27.5t77.5 -111.5l325 -807h4v805q0 63 40.5 102t97.5 39t97 -39t40 -102v-1233q0 -71 -39.5 -112.5t-97.5 -41.5q-87 0 -129.5 28t-75.5 112l-326 819h-4v-817q0 -63 -40 -102.5t-97 -39.5t-97 39.5t-40 102.5z" />
    <glyph glyph-name="O" unicode="O" horiz-adv-x="1064" 
d="M82 594v311q0 113 13.5 203.5t35.5 153t56.5 108t71 72t85 42t91.5 20.5t97 5q42 0 76 -3t73 -11t70 -22t63 -37.5t56.5 -55.5t46.5 -78t36 -102.5t22 -131.5t8 -163v-311q0 -117 -12 -209.5t-32.5 -158t-53.5 -113t-68.5 -76t-84.5 -45t-95 -22t-105 -5.5t-105 5.5
t-95 22t-84.5 45t-68 76t-53 113t-32.5 158t-12 209.5zM369 905v-311q0 -133 9 -216t31.5 -125.5t50 -56.5t72.5 -14q46 0 73.5 14t49.5 56.5t31.5 125.5t9.5 216v311q0 155 -19 241t-53 116t-92 30t-91.5 -30t-52.5 -116t-19 -241z" />
    <glyph glyph-name="P" unicode="P" horiz-adv-x="1024" 
d="M115 115v1212q0 76 36 112t111 36h342q373 0 373 -416q0 -89 -21.5 -166t-63 -137t-110 -94.5t-155.5 -34.5h-238v-512q0 -63 -40 -102.5t-97 -39.5t-97 39.5t-40 102.5zM389 1268v-434h123q90 0 134 56.5t44 156.5q0 221 -164 221h-137z" />
    <glyph glyph-name="Q" unicode="Q" horiz-adv-x="1064" 
d="M82 594v311q0 113 13.5 203.5t35.5 153t56.5 108t71 72t85 42t91.5 20.5t97 5q42 0 76 -3t73 -11t70 -22t63 -37.5t56.5 -55.5t46.5 -78t36 -102.5t22 -131.5t8 -163v-311q0 -302 -80 -449l78 -73q59 -56 59 -107q0 -34 -28.5 -61t-61.5 -27q-51 0 -125 74l-57 59
q-83 -45 -236 -45q-59 0 -105 5.5t-95 22t-84.5 45t-68 76t-53 113t-32.5 158t-12 209.5zM369 905v-311q0 -133 9 -216t31.5 -125.5t50 -56.5t72.5 -14q32 0 56 8l-13 13q-36 36 -36 78q0 40 29 66t67 26q24 0 47 -23q14 83 14 244v311q0 155 -19 241t-53 116t-92 30
t-91.5 -30t-52.5 -116t-19 -241z" />
    <glyph glyph-name="R" unicode="R" horiz-adv-x="1062" 
d="M115 115v1212q0 76 36 112t111 36h377q90 0 156 -29.5t103.5 -82.5t55 -119t17.5 -148q0 -144 -41.5 -219.5t-136.5 -114.5q103 -36 136.5 -105t33.5 -208v-158q0 -42 9 -118t9 -112t-33.5 -62t-97.5 -26q-162 0 -168 140l-12 376q-6 154 -162 154h-119v-528
q0 -63 -40 -102.5t-97 -39.5t-97 39.5t-40 102.5zM389 1268v-418h107q90 0 139 47.5t49 161.5q0 112 -39.5 160.5t-136.5 48.5h-119z" />
    <glyph glyph-name="S" unicode="S" horiz-adv-x="1024" 
d="M535 573l-265 187q-103 74 -144.5 160t-41.5 204q0 95 35 169.5t95 121t137.5 70.5t166.5 24q88 0 160 -24t117 -62t75.5 -88t43 -99t12.5 -97q0 -67 -37.5 -103.5t-97.5 -36.5q-78 0 -104 34.5t-36 121.5q-16 137 -147 137q-64 0 -105 -38t-41 -103q0 -61 28 -109
t120 -110l203 -133q81 -53 130 -105.5t79 -131.5t30 -183q0 -195 -118 -304.5t-349 -109.5q-74 0 -135.5 18t-102.5 46.5t-72.5 67t-48.5 75.5t-28 75.5t-14.5 64t-3.5 44.5q0 86 29.5 136.5t109.5 50.5q66 0 97.5 -40.5t37.5 -137.5q5 -81 45 -132t119 -51q78 0 119 48.5
t41 123.5q0 72 -30 117t-109 102z" />
    <glyph glyph-name="T" unicode="T" horiz-adv-x="1064" 
d="M178 1475h709q73 0 108 -33.5t35 -89.5t-35 -89.5t-108 -33.5h-217v-1114q0 -63 -40.5 -102.5t-97.5 -39.5t-97 39.5t-40 102.5v1114h-217q-73 0 -108 33.5t-35 89.5t35 89.5t108 33.5z" />
    <glyph glyph-name="U" unicode="U" horiz-adv-x="1099" 
d="M104 391v969q0 63 40.5 102t97.5 39t97 -39t40 -102v-942q0 -118 45.5 -177t126.5 -59q79 0 124.5 59t45.5 177v942q0 63 40 102t97 39t97 -39t40 -102v-969q0 -198 -113.5 -312t-330.5 -114t-332 114t-115 312z" />
    <glyph glyph-name="V" unicode="V" horiz-adv-x="1024" 
d="M311 131l-254 1133q-18 87 -18 104q0 54 39.5 93.5t101.5 39.5q63 0 95 -28t44 -93l209 -1089h4l181 1065q12 71 42 108t95 37q64 0 99.5 -33t35.5 -92q0 -35 -14 -110l-244 -1145q-19 -90 -64.5 -119t-148.5 -29q-100 0 -142 38t-61 120z" />
    <glyph glyph-name="W" unicode="W" horiz-adv-x="1554" 
d="M772 920l-137 -834q-12 -68 -49 -90.5t-127 -22.5q-93 0 -131 29t-49 92l-224 1180q-14 82 -14 106q0 54 39 87.5t108 33.5q110 0 127 -115l168 -1028h4l166 1031q10 59 36.5 85.5t88.5 26.5t88.5 -26.5t36.5 -85.5l184 -1031h5l147 1020q10 67 45 95t96 28
q133 0 133 -127q0 -36 -12 -98l-209 -1153q-19 -98 -53 -124t-141 -26q-74 0 -109 13.5t-50.5 44t-27.5 102.5l-135 787h-4z" />
    <glyph glyph-name="X" unicode="X" horiz-adv-x="1024" 
d="M94 229l260 525l-256 518q-32 65 -32 106q0 54 41 88.5t100 34.5q54 0 90 -27.5t68 -105.5l145 -364l176 397q25 54 54.5 77t72.5 23q65 0 104 -32.5t39 -88.5q0 -41 -22 -86l-268 -540l282 -576q25 -56 25 -80q0 -52 -38 -88.5t-104 -36.5q-55 0 -87.5 25t-55.5 78
l-184 420l-191 -437q-38 -86 -127 -86q-59 0 -97 33.5t-38 89.5q0 46 43 133z" />
    <glyph glyph-name="Y" unicode="Y" horiz-adv-x="985" 
d="M356 115v491l-299 674q-24 57 -24 96q0 62 39 93.5t96 31.5q63 0 91 -25t58 -104l177 -467l186 488q24 64 57 86t84 22q56 0 93.5 -33.5t37.5 -76.5q0 -39 -20 -84l-301 -686v-506q0 -63 -40 -102.5t-97 -39.5t-97.5 39.5t-40.5 102.5z" />
    <glyph glyph-name="Z" unicode="Z" horiz-adv-x="1062" 
d="M649 1229h-424q-73 0 -108 33.5t-35 89.5t35 89.5t108 33.5h631q145 0 145 -121q0 -63 -51 -146l-559 -962h481q73 0 108.5 -33.5t35.5 -89.5t-35.5 -89.5t-108.5 -33.5h-682q-67 0 -105 40t-38 89q0 28 9 53.5t36 71.5z" />
    <glyph glyph-name="bracketleft" unicode="[" horiz-adv-x="606" 
d="M141 -219v1573q0 147 158 147h170q43 0 70.5 -26.5t27.5 -71.5t-27.5 -71.5t-70.5 -26.5h-78v-1475h78q43 0 70.5 -26.5t27.5 -71.5t-27.5 -72t-70.5 -27h-170q-158 0 -158 148z" />
    <glyph glyph-name="backslash" unicode="\" horiz-adv-x="681" 
d="M475 55l-469 1309q-12 30 -12 72q0 33 29 53t69 20q38 0 69.5 -26t45.5 -64l469 -1308q12 -30 12 -72q0 -33 -29 -53.5t-69 -20.5q-38 0 -69.5 26t-45.5 64z" />
    <glyph glyph-name="bracketright" unicode="]" horiz-adv-x="606" 
d="M215 -170v1475h-78q-43 0 -70.5 26.5t-27.5 71.5t27.5 71.5t70.5 26.5h170q158 0 158 -147v-1573q0 -148 -158 -148h-170q-43 0 -70.5 27t-27.5 72t27.5 71.5t70.5 26.5h78z" />
    <glyph glyph-name="asciicircum" unicode="^" horiz-adv-x="1228" 
d="M164 813l315 573q28 51 60 70t75 19q44 0 76.5 -19t59.5 -70l315 -573q27 -53 27 -90q0 -29 -22 -51.5t-75 -22.5q-45 0 -76 17t-57 65l-248 457l-247 -457q-26 -48 -57.5 -65t-76.5 -17q-53 0 -74.5 22.5t-21.5 51.5q0 37 27 90z" />
    <glyph glyph-name="underscore" unicode="_" horiz-adv-x="1024" 
d="M1024 -256h-1024q-10 0 -17.5 14t-7.5 37t7.5 37t17.5 14h1024q10 0 17.5 -14t7.5 -37t-7.5 -37t-17.5 -14z" />
    <glyph glyph-name="grave" unicode="`" 
d="M227 1239l-161 150q-52 48 -52 94q0 39 27.5 63.5t62.5 24.5q27 0 43 -6t37 -27l172 -174q31 -31 31 -68q0 -39 -23.5 -64.5t-62.5 -25.5q-36 0 -74 33z" />
    <glyph glyph-name="a" unicode="a" horiz-adv-x="909" 
d="M809 807v-569q0 -41 7 -97t7 -69q0 -99 -125 -99q-58 0 -94.5 33t-36.5 109l-4 -2q-32 -71 -93 -105.5t-134 -34.5q-117 0 -187.5 73.5t-70.5 223.5q0 128 40.5 205t137.5 129l223 117q80 42 80 117q0 47 -25.5 78.5t-70.5 31.5q-62 0 -88.5 -31t-34.5 -100
q-4 -37 -36.5 -58.5t-82.5 -21.5t-90.5 25.5t-40.5 77.5q0 140 98.5 217.5t249.5 77.5q70 0 125.5 -9t94 -24t66.5 -39.5t44 -50.5t25.5 -61.5t12.5 -68t3 -75.5zM559 377v196l-88 -61q-82 -57 -106.5 -98t-24.5 -113q0 -62 24 -96.5t64 -34.5q60 0 95.5 58.5t35.5 148.5z
" />
    <glyph glyph-name="b" unicode="b" horiz-adv-x="948" 
d="M371 659v-208q0 -130 28 -200.5t97 -70.5q64 0 84 68.5t20 222.5v145q0 184 -21.5 248t-84.5 64q-123 0 -123 -269zM121 123v1229q0 74 33 111.5t92 37.5t92 -37.5t33 -111.5v-346h4q33 62 92 95.5t129 33.5q65 0 113.5 -24t77.5 -62.5t46 -97t23 -117t6 -132.5v-296
q0 -74 -6 -132.5t-23 -117t-46 -97t-77.5 -62.5t-113.5 -24q-155 0 -221 129h-4q0 -56 -35 -92.5t-90 -36.5q-59 0 -92 37.5t-33 112.5z" />
    <glyph glyph-name="c" unicode="c" horiz-adv-x="872" 
d="M86 453v202q0 91 6 153.5t27.5 129t60 106.5t107.5 65.5t166 25.5q82 0 146 -22.5t100.5 -55.5t60 -76t31.5 -79.5t8 -70.5q0 -70 -34 -105.5t-89 -35.5q-65 0 -96 33t-31 108q0 51 -26.5 79t-67.5 28q-36 0 -58.5 -18.5t-32.5 -58.5t-13 -79t-3 -104v-246
q0 -140 24 -201t83 -61q91 0 94 113q4 102 34 141t93 39q56 0 89.5 -39t33.5 -107q0 -26 -3.5 -54t-13.5 -62.5t-26 -65.5t-43 -61.5t-62 -52t-86 -35t-112 -13.5q-97 0 -166 25.5t-107.5 65.5t-60 106.5t-27.5 129t-6 153.5z" />
    <glyph glyph-name="d" unicode="d" horiz-adv-x="948" 
d="M348 616v-145q0 -154 20.5 -222.5t84.5 -68.5q69 0 97 70.5t28 200.5v208q0 269 -123 269q-63 0 -85 -64.5t-22 -247.5zM86 406v296q0 74 6 132.5t23 117t46 97t77.5 62.5t113.5 24q70 0 129 -33.5t92 -95.5h5v346q0 75 32.5 112t91.5 37t92 -37.5t33 -111.5v-1229
q0 -75 -33 -112.5t-92 -37.5q-55 0 -89.5 36.5t-34.5 92.5h-5q-66 -129 -221 -129q-65 0 -113.5 24t-77.5 62.5t-46 97t-23 117t-6 132.5z" />
    <glyph glyph-name="e" unicode="e" horiz-adv-x="872" 
d="M340 696h217v92q0 150 -108 150q-109 0 -109 -150v-92zM78 438v232q0 66 3 115t13 100.5t27 87t45.5 68t68.5 52t96 31t128 11.5q190 0 269 -106t79 -331q0 -43 -4 -71t-17.5 -54.5t-42.5 -39.5t-75 -13h-328v-112q0 -57 3.5 -94.5t14.5 -73t34.5 -53t60.5 -17.5
q39 0 66.5 34.5t29.5 80.5q3 76 34 104.5t89 28.5q61 0 94 -27t33 -96q0 -149 -93 -235.5t-247 -86.5q-72 0 -128 11.5t-96 31t-68.5 52t-45.5 68t-27 87t-13 100.5t-3 115z" />
    <glyph glyph-name="f" unicode="f" horiz-adv-x="530" 
d="M137 123v799h-26q-57 0 -84 21t-27 71q0 51 27 72.5t84 21.5h26v147q0 137 65.5 191.5t209.5 54.5q63 0 94 -26.5t31 -83.5q0 -38 -19.5 -61.5t-56.5 -24.5q-44 -1 -59 -22t-15 -73v-102h39q57 0 84 -21.5t27 -72.5q0 -50 -27 -71t-84 -21h-39v-799q0 -75 -33 -112.5
t-92 -37.5t-92 37.5t-33 112.5z" />
    <glyph glyph-name="g" unicode="g" horiz-adv-x="948" 
d="M348 684v-176q0 -183 22 -247t85 -64q123 0 123 268v194q0 79 -11.5 135.5t-30.5 83.5t-38 38.5t-39 11.5q-55 0 -83 -57t-28 -187zM86 432v287q0 85 12.5 155t41 131t82.5 95.5t130 34.5q74 0 138 -40t92 -110h4q0 150 123 150q54 0 86 -38t32 -112v-1046
q0 -187 -92.5 -275t-281.5 -88q-148 0 -238 51.5t-90 155.5q0 51 35 81t90 30q40 0 68.5 -21t41.5 -53q28 -68 86 -68q78 0 105 50t27 169v154h-5q-41 -74 -89.5 -99.5t-131.5 -25.5q-65 0 -113.5 24t-77.5 62t-46 96.5t-23 117t-6 132.5z" />
    <glyph glyph-name="h" unicode="h" horiz-adv-x="948" 
d="M111 123v1229q0 74 33 111.5t92 37.5t91.5 -37t32.5 -112v-361h5q30 69 94 106.5t139 37.5q109 0 174.5 -69.5t65.5 -205.5v-737q0 -75 -33 -112.5t-92 -37.5t-92 37.5t-33 112.5v678q0 58 -27 87.5t-69 29.5q-62 0 -97 -49t-35 -150v-596q0 -75 -32.5 -112.5
t-91.5 -37.5t-92 37.5t-33 112.5z" />
    <glyph glyph-name="i" unicode="i" 
d="M121 123v862q0 75 33 112.5t92 37.5t92 -37.5t33 -112.5v-862q0 -75 -33 -112.5t-92 -37.5t-92 37.5t-33 112.5zM102 1366q0 60 42 101.5t102 41.5t101.5 -41.5t41.5 -101.5t-41.5 -101.5t-101.5 -41.5t-102 41.5t-42 101.5z" />
    <glyph glyph-name="j" unicode="j" 
d="M121 -131v1116q0 75 33 112.5t92 37.5t92 -37.5t33 -112.5v-1171q0 -121 -67 -179.5t-187 -58.5q-66 0 -91.5 29t-25.5 78q0 48 20 68t64 30q37 8 37 88zM102 1366q0 60 42 101.5t102 41.5t101.5 -41.5t41.5 -101.5t-41.5 -101.5t-101.5 -41.5t-102 41.5t-42 101.5z" />
    <glyph glyph-name="k" unicode="k" horiz-adv-x="909" 
d="M111 123v1229q0 74 33 111.5t92 37.5t91.5 -37t32.5 -112v-662h5l217 340q67 105 135 105q45 0 84 -28.5t39 -78.5q0 -40 -33 -86l-189 -270l228 -525q14 -32 14 -71q0 -45 -35.5 -74t-87.5 -29q-51 0 -82.5 22t-54.5 75l-160 376l-80 -102v-221q0 -75 -32.5 -112.5
t-91.5 -37.5t-92 37.5t-33 112.5z" />
    <glyph glyph-name="l" unicode="l" 
d="M121 123v1229q0 74 33 111.5t92 37.5t92 -37.5t33 -111.5v-1229q0 -75 -33 -112.5t-92 -37.5t-92 37.5t-33 112.5z" />
    <glyph glyph-name="m" unicode="m" horiz-adv-x="1404" 
d="M1303 860v-737q0 -75 -33 -112.5t-92 -37.5t-92 37.5t-33 112.5v678q0 58 -27 87.5t-70 29.5q-61 0 -95 -49t-34 -150v-596q0 -75 -33 -112.5t-92 -37.5t-91.5 37.5t-32.5 112.5v678q0 58 -27 87.5t-70 29.5q-61 0 -95 -49t-34 -150v-596q0 -75 -33 -112.5t-92 -37.5
t-92 37.5t-33 112.5v862q0 75 33 112.5t92 37.5q58 0 91.5 -37t33.5 -107h4q30 69 94 106.5t140 37.5q84 0 135.5 -28.5t87.5 -96.5q55 68 112.5 96.5t137.5 28.5q109 0 174.5 -69.5t65.5 -205.5z" />
    <glyph glyph-name="n" unicode="n" horiz-adv-x="948" 
d="M111 123v862q0 75 33 112.5t92 37.5q58 0 91 -36.5t33 -107.5h5q30 69 94 106.5t139 37.5q109 0 174.5 -69.5t65.5 -205.5v-737q0 -75 -33 -112.5t-92 -37.5t-92 37.5t-33 112.5v678q0 58 -27 87.5t-69 29.5q-62 0 -97 -49t-35 -150v-596q0 -75 -32.5 -112.5t-91.5 -37.5
t-92 37.5t-33 112.5z" />
    <glyph glyph-name="o" unicode="o" horiz-adv-x="909" 
d="M340 688v-264q0 -149 25.5 -201.5t89.5 -52.5t89 52.5t25 201.5v264q0 144 -27.5 197t-86.5 53q-39 0 -63 -20t-38 -76t-14 -154zM78 403v302q0 75 10.5 136.5t36.5 117.5t68 93.5t108.5 60t153.5 22.5t153.5 -22.5t108 -60t68 -93.5t36.5 -117.5t10 -136.5v-302
q0 -75 -10 -136.5t-36.5 -117.5t-68 -93.5t-108 -60t-153.5 -22.5t-153.5 22.5t-108.5 60t-68 93.5t-36.5 117.5t-10.5 136.5z" />
    <glyph glyph-name="p" unicode="p" horiz-adv-x="948" 
d="M371 659v-219q0 -130 28 -200t97 -70q64 0 84 68.5t20 222.5v155q0 184 -21.5 248t-84.5 64q-123 0 -123 -269zM121 -274v1259q0 75 33 112.5t92 37.5t92 -37.5t33 -112.5h4q31 70 92.5 110t128.5 40q65 0 113.5 -24t77.5 -62.5t46 -97t23 -117t6 -132.5v-296
q0 -74 -6 -132.5t-23 -117t-46 -97t-77.5 -62.5t-113.5 -24q-72 0 -130 31.5t-91 93.5h-4v-372q0 -75 -33 -112.5t-92 -37.5t-92 37.5t-33 112.5z" />
    <glyph glyph-name="q" unicode="q" horiz-adv-x="948" 
d="M578 440v219q0 269 -123 269q-63 0 -85 -64.5t-22 -247.5v-155q0 -154 20.5 -222.5t84.5 -68.5q69 0 97 70t28 200zM827 985v-1259q0 -75 -33 -112.5t-92 -37.5t-91.5 37.5t-32.5 112.5v372h-5q-33 -62 -91 -93.5t-130 -31.5q-65 0 -113.5 24t-77.5 62.5t-46 97t-23 117
t-6 132.5v296q0 74 6 132.5t23 117t46 97t77.5 62.5t113.5 24q67 0 128.5 -40t92.5 -110h5q0 75 32.5 112.5t91.5 37.5t92 -37.5t33 -112.5z" />
    <glyph glyph-name="r" unicode="r" horiz-adv-x="681" 
d="M111 123v876q0 136 116 136q117 0 117 -136v-104h4q29 110 77 175t110 65q54 0 88 -40.5t34 -121.5q0 -64 -37 -107t-118 -43q-61 0 -101.5 -40t-40.5 -111v-549q0 -75 -32.5 -112.5t-91.5 -37.5t-92 37.5t-33 112.5z" />
    <glyph glyph-name="s" unicode="s" horiz-adv-x="833" 
d="M432 401l-190 142q-102 76 -135 138t-33 155q0 146 93 222.5t249 76.5q76 0 136.5 -20t97 -50t60.5 -68.5t33 -71.5t9 -63q0 -60 -30 -91.5t-101 -31.5q-97 0 -103 97q-3 56 -31.5 84t-76.5 28q-39 0 -62.5 -23.5t-23.5 -62.5q0 -64 55 -106l153 -117q67 -50 104.5 -82.5
t71.5 -74t48 -85t14 -98.5q0 -157 -101 -241.5t-261 -84.5q-77 0 -138.5 19.5t-99 50.5t-62.5 72.5t-35 82t-10 81.5q0 65 34 94.5t85 29.5q67 0 96 -36t35 -117q8 -90 109 -90q98 0 98 102q0 42 -18 71t-70 68z" />
    <glyph glyph-name="t" unicode="t" horiz-adv-x="530" 
d="M137 193v729h-26q-57 0 -84 21t-27 71q0 51 27 72.5t84 21.5h26v190q0 75 33 112.5t92 37.5t92 -37.5t33 -112.5v-190h57q57 0 84 -21.5t27 -72.5q0 -50 -27 -71t-84 -21h-57v-652q0 -38 14 -56t54 -21q46 -2 69 -22t23 -67q0 -62 -38.5 -89t-119.5 -27q-134 0 -193 58
t-59 147z" />
    <glyph glyph-name="u" unicode="u" horiz-adv-x="948" 
d="M111 248v737q0 75 33 112.5t92 37.5t91.5 -37.5t32.5 -112.5v-678q0 -117 97 -117q67 0 99 48t32 151v596q0 75 33 112.5t92 37.5t92 -37.5t33 -112.5v-862q0 -75 -33 -112.5t-92 -37.5q-58 0 -91.5 37t-33.5 107h-4q-30 -69 -94 -106.5t-140 -37.5q-109 0 -174 69.5
t-65 205.5z" />
    <glyph glyph-name="v" unicode="v" horiz-adv-x="872" 
d="M252 131l-197 832q-10 42 -10 57q0 53 37.5 84t89.5 31q63 0 96 -30.5t45 -100.5l131 -728h5l124 728q11 66 41 98.5t91 32.5t91.5 -32t30.5 -75q0 -40 -12 -86l-201 -856q-15 -59 -52 -86t-124 -27q-65 0 -102.5 19t-53.5 49.5t-30 89.5z" />
    <glyph glyph-name="w" unicode="w" horiz-adv-x="1327" 
d="M229 141l-168 793q-8 36 -8 74q0 60 34.5 93.5t92.5 33.5q115 0 135 -148l103 -686h4l104 629q18 112 46.5 158.5t89.5 46.5q95 0 116 -115l140 -719h4l102 698q21 136 133 136q51 0 84 -34t33 -91q0 -27 -8 -66l-168 -815q-16 -85 -50 -120.5t-118 -35.5q-87 0 -123 43
t-55 144l-88 461h-5l-94 -510q-25 -138 -166 -138q-75 0 -113 38.5t-57 129.5z" />
    <glyph glyph-name="x" unicode="x" horiz-adv-x="833" 
d="M72 188l200 373l-176 330q-41 78 -41 127q0 56 37.5 86.5t89.5 30.5t78 -21t53 -80l109 -227l117 244q41 84 116 84q58 0 92.5 -32.5t34.5 -84.5q0 -38 -45 -123l-178 -324l193 -356q43 -81 43 -125q0 -49 -39.5 -83t-96.5 -34q-84 0 -120 80l-125 275l-138 -277
q-22 -42 -46 -60t-58 -18q-58 0 -95.5 31.5t-37.5 83.5q0 39 33 100z" />
    <glyph glyph-name="y" unicode="y" horiz-adv-x="872" 
d="M299 -90l-250 1042q-10 58 -10 66q0 54 36 85.5t97 31.5q112 0 129 -97l145 -772h5l122 731q12 67 42.5 102.5t93.5 35.5q55 0 90 -30t35 -81q0 -18 -15 -80l-260 -1096q-27 -114 -58.5 -169t-89 -79t-165.5 -24q-117 0 -117 109q0 42 21 65t77 29q22 2 31.5 4t23.5 8.5
t19.5 20t5.5 36.5q0 31 -8 62z" />
    <glyph glyph-name="z" unicode="z" horiz-adv-x="872" 
d="M182 1108h502q129 0 129 -86q0 -32 -9 -57t-36 -72l-395 -676h321q125 0 125 -106q0 -111 -125 -111h-520q-63 0 -92 26t-29 78q0 47 35 111l395 676h-301q-125 0 -125 106q0 111 125 111z" />
    <glyph glyph-name="braceleft" unicode="{" horiz-adv-x="643" 
d="M178 -94v426q0 45 -6.5 74t-20 42t-26.5 17t-33 4q-40 0 -62 29.5t-22 68.5t22 69t62 30q20 0 33 4t26.5 17t20 42t6.5 74v426q0 140 60.5 206t181.5 66h133q37 0 59.5 -24.5t22.5 -73.5t-22.5 -73.5t-59.5 -24.5h-45q-80 0 -80 -121v-404q0 -54 -15 -94t-34.5 -60.5
t-50.5 -34t-49.5 -16.5t-45.5 -6v-4q27 -3 45.5 -6t49.5 -16.5t50.5 -34t34.5 -60.5t15 -94v-403q0 -121 80 -121h45q37 0 59.5 -24.5t22.5 -73.5t-22.5 -74t-59.5 -25h-133q-120 0 -181 66.5t-61 206.5z" />
    <glyph glyph-name="bar" unicode="|" horiz-adv-x="454" 
d="M111 115v1245q0 74 31.5 111.5t84.5 37.5t85 -37.5t32 -111.5v-1245q0 -74 -32 -112t-85 -38t-84.5 38t-31.5 112z" />
    <glyph glyph-name="braceright" unicode="}" horiz-adv-x="643" 
d="M465 1229v-426q0 -45 6.5 -74t20 -42t26.5 -17t33 -4q40 0 62 -30t22 -69t-22 -68.5t-62 -29.5q-20 0 -33 -4t-26.5 -17t-20 -42t-6.5 -74v-426q0 -140 -61 -206.5t-181 -66.5h-133q-37 0 -59.5 25t-22.5 74t22.5 73.5t59.5 24.5h45q80 0 80 121v403q0 54 15 94
t34.5 60.5t50.5 34t49.5 16.5t45.5 6v4q-27 3 -45.5 6t-49.5 16.5t-50.5 34t-34.5 60.5t-15 94v404q0 121 -80 121h-45q-37 0 -59.5 24.5t-22.5 73.5t22.5 73.5t59.5 24.5h133q121 0 181.5 -66t60.5 -206z" />
    <glyph glyph-name="asciitilde" unicode="~" horiz-adv-x="1228" 
d="M84 518q0 87 81.5 156t207.5 69q106 0 254 -55q152 -55 202 -55q38 0 71 15t53 33t48 33t56 15q88 0 88 -88q0 -87 -83.5 -156t-217.5 -69q-85 0 -244 55q-7 2 -43.5 15t-47.5 16.5t-36.5 11t-42 10t-31.5 2.5q-38 0 -71 -15.5t-52.5 -33.5t-47.5 -33.5t-56 -15.5
q-88 0 -88 90z" />
    <glyph glyph-name="uni00A0" unicode="&#xa0;" 
 />
    <glyph glyph-name="exclamdown" unicode="&#xa1;" horiz-adv-x="569" 
d="M147 -250v316q0 49 9 143l39 434q5 59 23 84t67 25t67 -25t23 -84l39 -434q8 -84 8 -143v-316q0 -67 -34.5 -105t-102.5 -38q-69 0 -103.5 38t-34.5 105zM129 979q0 65 45.5 110.5t110.5 45.5q64 0 109.5 -45.5t45.5 -110.5t-45.5 -110.5t-109.5 -45.5q-65 0 -110.5 45.5
t-45.5 110.5z" />
    <glyph glyph-name="cent" unicode="&#xa2;" horiz-adv-x="983" 
d="M375 588v-180q0 -55 2 -78h4l154 606q-2 2 -13 2q-41 0 -64.5 -8t-41.5 -26.5t-26 -61t-11.5 -100t-3.5 -154.5zM125 453v202q0 64 2.5 111t12 100t25.5 90t44 73t67.5 58t96.5 35t129 13q46 0 82 -5l22 91q10 40 25.5 57.5t38.5 17.5q12 0 23.5 -10t11.5 -22
q0 -17 -9 -47l-26 -103q198 -52 198 -299q0 -52 -26.5 -87.5t-81.5 -35.5q-64 0 -86 28t-33 111q-6 48 -25 70l-180 -713q24 -18 74 -18q124 0 127 133q1 88 31 126t88 38q62 0 88 -37.5t26 -105.5q0 -85 -19 -147.5t-51.5 -101t-82 -62t-103 -32t-122.5 -8.5q-58 0 -107 9
l-39 -150q-15 -57 -55 -57q-37 0 -37 41q0 24 8 55l35 141q-56 25 -91.5 67.5t-52.5 105t-22.5 122.5t-5.5 146z" />
    <glyph glyph-name="sterling" unicode="&#xa3;" horiz-adv-x="983" 
d="M444 791h228q48 0 72 -27.5t24 -61.5t-24 -61t-72 -27h-166q16 -46 16 -86q0 -73 -49 -161t-143 -166l4 -4q84 30 160 30q59 0 124.5 -18.5t102.5 -18.5q35 0 76 13.5t69 13.5q40 0 68.5 -25t28.5 -73q0 -71 -72 -108.5t-174 -37.5q-66 0 -184 29t-168 29q-40 0 -111 -23
q-58 -20 -98 -20q-38 0 -61 33.5t-23 78.5q0 24 20.5 51.5t50 56.5t59 63.5t50 84t20.5 105.5q0 85 -20 153h-111q-48 0 -72 27t-24 61t24 61.5t72 27.5h33q-23 52 -35.5 83t-24.5 86.5t-12 110.5q0 183 123.5 293.5t311.5 110.5q96 0 173.5 -29t125.5 -78t73 -111t25 -131
q0 -64 -35 -98.5t-100 -34.5q-61 0 -89.5 31.5t-37.5 99.5q-21 144 -146 144q-81 0 -121 -57t-40 -140q0 -53 14 -109t26.5 -86.5t38.5 -84.5z" />
    <glyph glyph-name="currency" unicode="&#xa4;" horiz-adv-x="983" 
d="M33 410l47 41q-80 124 -80 272t80 272l-47 41q-29 25 -29 66q0 40 30 70t68 30q50 0 80 -33l37 -36q116 81 273 81t270 -81l37 36q33 33 80 33q38 0 68 -30t30 -70q0 -41 -29 -66l-47 -41q82 -127 82 -272t-82 -272l47 -41q29 -25 29 -66q0 -40 -30 -70t-68 -30
q-45 0 -80 32l-37 37q-114 -82 -270 -82q-155 0 -273 82l-37 -37q-32 -32 -80 -32q-38 0 -68 30t-30 70q0 41 29 66zM250 723q0 -123 64 -190.5t178 -67.5q113 0 177 67t64 191t-64 191t-177 67q-114 0 -178 -67.5t-64 -190.5z" />
    <glyph glyph-name="yen" unicode="&#xa5;" horiz-adv-x="983" 
d="M360 442v131h-165q-50 0 -75.5 22.5t-25.5 61.5q0 38 25.5 60t75.5 22h108l-244 545q-20 45 -20 82q0 44 35.5 76.5t95.5 32.5q47 0 74.5 -21.5t52.5 -87.5l195 -526l194 526q25 66 52.5 87.5t74.5 21.5q60 0 95.5 -32.5t35.5 -76.5q0 -37 -20 -82l-244 -545h133
q50 0 75 -22t25 -60q0 -39 -25 -61.5t-75 -22.5h-190v-131h190q50 0 75 -22t25 -60q0 -39 -25 -61.5t-75 -22.5h-190v-163q0 -61 -39 -100.5t-92 -39.5t-92.5 39.5t-39.5 100.5v163h-165q-50 0 -75.5 22.5t-25.5 61.5q0 38 25.5 60t75.5 22h165z" />
    <glyph glyph-name="brokenbar" unicode="&#xa6;" horiz-adv-x="454" 
d="M111 115v342q0 74 31.5 111.5t84.5 37.5t85 -37.5t32 -111.5v-342q0 -74 -32 -112t-85 -38t-84.5 38t-31.5 112zM111 1018v342q0 74 31.5 111.5t84.5 37.5t85 -37.5t32 -111.5v-342q0 -74 -32 -112t-85 -38t-84.5 38t-31.5 112z" />
    <glyph glyph-name="section" unicode="&#xa7;" horiz-adv-x="985" 
d="M465 152l-203 151q-100 77 -146 158t-46 174q0 97 40 176t117 129q-90 94 -90 227q0 49 11.5 95t38.5 91.5t67.5 79.5t103.5 55t142 21q90 0 161 -23.5t112 -62.5t62 -84.5t21 -93.5q0 -52 -36.5 -84.5t-92.5 -32.5q-42 0 -69.5 22t-45.5 75q-16 51 -41 69.5t-63 18.5
q-65 0 -93 -38t-28 -83q0 -43 28 -83.5t95 -90.5l182 -139q124 -97 173.5 -174.5t49.5 -180.5q0 -90 -43 -165t-118 -126l24 -28q43 -51 61.5 -100t18.5 -113q0 -175 -107.5 -269t-277.5 -94q-78 0 -142 19.5t-105 49.5t-69 68.5t-39.5 75.5t-11.5 72q0 60 33.5 91.5
t93.5 31.5q46 0 74 -22t41 -78q14 -57 46.5 -84t90.5 -27q59 0 91 35.5t32 91.5q0 51 -33 96.5t-110 102.5zM395 535l213 -168q37 25 55.5 56t18.5 58q0 42 -28 80t-99 94l-178 142q-74 -44 -74 -123q0 -37 21 -69t71 -70z" />
    <glyph glyph-name="dieresis" unicode="&#xa8;" 
d="M-82 1364q0 57 40 97t97 40t97.5 -40t40.5 -97t-40.5 -97t-97.5 -40t-97 40t-40 97zM299 1364q0 57 40 97t97 40t97 -40t40 -97t-40 -97t-97 -40t-97 40t-40 97z" />
    <glyph glyph-name="copyright" unicode="&#xa9;" horiz-adv-x="1638" 
d="M442 743q0 195 111 321t295 126q149 0 244.5 -80t95.5 -170q0 -43 -22.5 -71.5t-63.5 -28.5q-40 0 -65 21t-44 67q-29 76 -147 76q-87 0 -137 -68t-50 -188q0 -117 51.5 -190t139.5 -73q46 0 86.5 23.5t58.5 56.5q47 92 115 92q39 0 62.5 -24.5t23.5 -65.5q0 -32 -24 -76
t-65.5 -87.5t-109.5 -74t-145 -30.5q-182 0 -296 127t-114 317zM47 737q0 157 61 300t164.5 246.5t246.5 164.5t300 61t300 -61t246.5 -164.5t164.5 -246.5t61 -300t-61 -300t-164.5 -246.5t-246.5 -164.5t-300 -61t-300 61t-246.5 164.5t-164.5 246.5t-61 300zM281 737
q0 -246 151 -400.5t387 -154.5t387.5 154.5t151.5 400.5t-151.5 400.5t-387.5 154.5t-387 -154.5t-151 -400.5z" />
    <glyph glyph-name="ordfeminine" unicode="&#xaa;" horiz-adv-x="591" 
d="M559 1278v-340q0 -24 4 -58.5t4 -41.5q0 -60 -80 -60q-61 0 -89 19t-27 65h-4q-44 -84 -174 -84q-76 0 -122 44t-46 134q0 78 26 127t88 74l172 70q51 21 51 67q0 25 -16 43.5t-45 18.5q-40 0 -57.5 -19t-22.5 -61q-6 -47 -112 -47q-32 0 -58 15t-26 46q0 91 68.5 138
t189.5 47q62 0 108 -6.5t75.5 -20.5t48.5 -30t28.5 -40.5t12.5 -46.5t3 -53zM362 1026v111l-55 -33q-54 -31 -70 -54.5t-16 -66.5q0 -35 15.5 -54.5t42.5 -19.5q39 0 61 33t22 84z" />
    <glyph glyph-name="guillemotleft" unicode="&#xab;" horiz-adv-x="872" 
d="M600 580l150 -131q55 -48 55 -78q0 -42 -27 -66t-63 -24t-64 28l-147 133q-43 38 -58.5 69t-15.5 69t15.5 68.5t58.5 68.5l147 133q29 29 64 29q36 0 63 -24.5t27 -66.5q0 -18 -13 -34.5t-42 -42.5zM238 580l149 -131q55 -48 55 -78q0 -42 -27 -66t-63 -24q-35 0 -63 28
l-148 133q-42 38 -57.5 68.5t-15.5 69.5t15 69t58 68l148 133q29 29 63 29q36 0 63 -24.5t27 -66.5q0 -18 -13 -34.5t-42 -42.5z" />
    <glyph glyph-name="logicalnot" unicode="&#xac;" horiz-adv-x="1228" 
d="M1194 813v-440q0 -63 -32 -103.5t-77 -40.5t-76.5 40.5t-31.5 103.5v340h-799q-63 0 -103 31.5t-40 76.5t40 77t103 32h873q64 0 103.5 -33t39.5 -84z" />
    <glyph glyph-name="uni00AD" unicode="&#xad;" horiz-adv-x="681" 
d="M475 463h-268q-62 0 -94.5 33.5t-32.5 83.5q0 49 32.5 82.5t94.5 33.5h268q62 0 94.5 -33.5t32.5 -82.5q0 -50 -32.5 -83.5t-94.5 -33.5z" />
    <glyph glyph-name="registered" unicode="&#xae;" horiz-adv-x="1638" 
d="M514 440v629q0 44 27.5 68t66.5 24h258q149 0 224 -55t75 -193q0 -105 -53 -166.5t-117 -66.5l142 -195q16 -20 16 -53q0 -36 -24.5 -61t-71.5 -25q-34 0 -55 15t-50 55l-190 264h-62v-240q0 -45 -26.5 -69.5t-65.5 -24.5t-66.5 24.5t-27.5 69.5zM700 1018v-195h150
q51 0 79.5 20t28.5 77t-28.5 77.5t-79.5 20.5h-150zM47 737q0 157 61 300t164.5 246.5t246.5 164.5t300 61t300 -61t246.5 -164.5t164.5 -246.5t61 -300t-61 -300t-164.5 -246.5t-246.5 -164.5t-300 -61t-300 61t-246.5 164.5t-164.5 246.5t-61 300zM281 737
q0 -246 151 -400.5t387 -154.5t387.5 154.5t151.5 400.5t-151.5 400.5t-387.5 154.5t-387 -154.5t-151 -400.5z" />
    <glyph glyph-name="macron" unicode="&#xaf;" 
d="M2 1448h487q101 0 101 -88t-101 -88h-487q-100 0 -100 88t100 88z" />
    <glyph glyph-name="degree" unicode="&#xb0;" horiz-adv-x="819" 
d="M117 1182q0 123 85 208t208 85t207.5 -85t84.5 -208t-84.5 -208t-207.5 -85t-208 85t-85 208zM272 1182q0 -57 40.5 -97.5t97.5 -40.5t97 40.5t40 97.5t-40 97t-97 40t-97.5 -40t-40.5 -97z" />
    <glyph glyph-name="plusminus" unicode="&#xb1;" horiz-adv-x="1228" 
d="M506 854v162q0 62 31 102.5t77 40.5t77.5 -40.5t31.5 -102.5v-162h328q63 0 103 -32t40 -77t-40 -76.5t-103 -31.5h-328v-162q0 -62 -31.5 -102.5t-77.5 -40.5t-77 40.5t-31 102.5v162h-328q-63 0 -103 31.5t-40 76.5t40 77t103 32h328zM178 217h873q63 0 103 -31.5
t40 -76.5t-40 -77t-103 -32h-873q-63 0 -103 32t-40 77t40 76.5t103 31.5z" />
    <glyph glyph-name="twosuperior" unicode="&#xb2;" horiz-adv-x="638" 
d="M510 588h-397q-80 0 -80 69q0 60 41.5 147t138.5 179l61 57q68 62 92.5 103t24.5 86q0 44 -21.5 73t-56.5 29q-72 0 -82 -121q-6 -69 -94 -69q-92 0 -92 98q0 109 68.5 172.5t195.5 63.5q141 0 215 -57.5t74 -164.5q0 -131 -117 -239l-110 -101q-99 -91 -123 -170h262
q48 0 72 -16.5t24 -60.5q0 -43 -24 -60.5t-72 -17.5z" />
    <glyph glyph-name="threesuperior" unicode="&#xb3;" horiz-adv-x="647" 
d="M315 573q-71 0 -125.5 17t-85 41t-49 56.5t-24.5 59t-6 52.5q0 98 94 98q96 0 102 -86q7 -106 98 -106q97 0 97 139q0 85 -25.5 113.5t-85.5 33.5q-53 4 -72.5 18.5t-19.5 45.5q0 32 16 45t68 22q56 9 77 36t21 91q0 39 -19.5 66.5t-62.5 27.5q-72 0 -86 -75
q-12 -68 -98 -68q-44 0 -66 20t-22 54q0 91 65.5 146t202.5 55q293 0 293 -228q0 -147 -115 -180v-4q75 -24 105.5 -75.5t30.5 -141.5q0 -134 -73.5 -203.5t-234.5 -69.5z" />
    <glyph glyph-name="acute" unicode="&#xb4;" 
d="M135 1364l172 174q21 21 37 27t43 6q35 0 62.5 -24.5t27.5 -63.5q0 -47 -51 -94l-162 -150q-38 -33 -74 -33q-39 0 -62.5 25.5t-23.5 64.5q0 37 31 68z" />
    <glyph glyph-name="mu" unicode="&#xb5;" horiz-adv-x="948" 
d="M111 -274v1259q0 75 33 112.5t92 37.5t91.5 -37.5t32.5 -112.5v-678q0 -117 97 -117q67 0 99 48t32 151v596q0 75 33 112.5t92 37.5t92 -37.5t33 -112.5v-862q0 -75 -33 -112.5t-92 -37.5q-58 0 -91.5 37t-33.5 107h-4q-24 -56 -74 -97q-57 -47 -113 -47q-26 0 -32 19h-5
v-266q0 -75 -32.5 -112.5t-91.5 -37.5t-92 37.5t-33 112.5z" />
    <glyph glyph-name="paragraph" unicode="&#xb6;" horiz-adv-x="985" 
d="M332 -213v973q-123 0 -207 95.5t-84 254.5q0 85 20.5 151t52.5 105.5t76.5 64.5t88 34.5t92.5 9.5h432q46 0 73 -33.5t27 -89.5v-1565q0 -56 -27.5 -89.5t-74.5 -33.5q-49 0 -77 33.5t-28 89.5v1501h-157v-1501q0 -56 -28 -89.5t-77 -33.5q-47 0 -74.5 33.5t-27.5 89.5z
" />
    <glyph glyph-name="periodcentered" unicode="&#xb7;" 
d="M90 625q0 64 45.5 109.5t110.5 45.5q64 0 109.5 -45t45.5 -110t-45.5 -110.5t-109.5 -45.5t-110 45.5t-46 110.5z" />
    <glyph glyph-name="cedilla" unicode="&#xb8;" 
d="M309 0l-73 -115h26q82 0 130 -35t48 -108q0 -83 -69.5 -133.5t-171.5 -50.5q-68 0 -114 21.5t-46 55.5q0 23 11.5 37.5t29.5 14.5q19 0 54 -11.5t50 -11.5q37 0 63.5 19t26.5 55q0 27 -20.5 46t-48.5 19q-10 0 -32.5 -3t-31.5 -3q-17 0 -28 10t-11 23q0 11 23 47l78 123
h106z" />
    <glyph glyph-name="onesuperior" unicode="&#xb9;" 
d="M209 1188h-123q-76 0 -76 57q0 29 13.5 44t42.5 20q74 10 114 34t64 68q25 43 40.5 53.5t59.5 10.5q72 0 72 -68v-748q0 -39 -29.5 -62.5t-75.5 -23.5q-45 0 -73.5 23.5t-28.5 62.5v529z" />
    <glyph glyph-name="ordmasculine" unicode="&#xba;" horiz-adv-x="591" 
d="M371 1061v129q0 91 -16 122t-60 31q-43 0 -58.5 -31t-15.5 -122v-129q0 -91 15.5 -121.5t58.5 -30.5q44 0 60 31t16 121zM567 1217v-181q0 -57 -12 -100.5t-40.5 -80.5t-84 -57t-135.5 -20t-135 20t-83.5 57t-40 80.5t-11.5 100.5v181q0 58 11.5 101.5t40 80.5t83.5 56.5
t135 19.5t135 -19.5t84 -56.5t41 -80.5t12 -101.5z" />
    <glyph glyph-name="guillemotright" unicode="&#xbb;" horiz-adv-x="872" 
d="M272 580l-149 131q-29 26 -42 42.5t-13 34.5q0 42 27 66.5t63 24.5q34 0 63 -29l148 -133q43 -38 58 -68t15 -69t-15.5 -69.5t-57.5 -68.5l-148 -133q-28 -28 -63 -28q-36 0 -63 24t-27 66q0 30 55 78zM635 580l-150 131q-29 26 -42 42.5t-13 34.5q0 42 27 66.5t63 24.5
q35 0 64 -29l147 -133q43 -38 58.5 -68.5t15.5 -68.5t-15.5 -69t-58.5 -69l-147 -133q-28 -28 -64 -28t-63 24t-27 66q0 30 55 78z" />
    <glyph glyph-name="onequarter" unicode="&#xbc;" horiz-adv-x="1515" 
d="M1192 295v350h-4l-176 -350h180zM1192 63v76h-236q-54 0 -79 18t-25 62q0 45 27 98l266 508q13 25 39.5 37t83.5 12q110 0 110 -77v-502h31q30 0 52 -18t22 -60t-22 -60t-52 -18h-31v-76q0 -90 -94 -90q-92 0 -92 90zM346 45l621 1428q24 53 88 53q34 0 52.5 -19
t18.5 -45q0 -32 -12 -59l-620 -1428q-24 -53 -88 -53q-34 0 -53 19t-19 45q0 32 12 59zM195 1188h-123q-76 0 -76 57q0 56 55 64q74 10 114 34t64 68q25 43 41 53.5t60 10.5q71 0 71 -68v-748q0 -39 -29 -62.5t-75 -23.5q-45 0 -73.5 23.5t-28.5 62.5v529z" />
    <glyph glyph-name="onehalf" unicode="&#xbd;" horiz-adv-x="1515" 
d="M338 45l620 1428q24 53 89 53q34 0 52.5 -19t18.5 -45q0 -32 -12 -59l-621 -1428q-24 -53 -88 -53q-34 0 -52.5 19t-18.5 45q0 32 12 59zM195 1188h-123q-76 0 -76 57q0 56 55 64q74 10 114 34t64 68q25 43 41 53.5t60 10.5q71 0 71 -68v-748q0 -39 -29 -62.5t-75 -23.5
q-45 0 -73.5 23.5t-28.5 62.5v529zM1386 0h-397q-80 0 -80 70q0 60 41.5 146.5t139.5 178.5l61 58q68 62 92.5 103t24.5 85t-21.5 73t-56.5 29q-39 0 -58 -30.5t-24 -89.5q-6 -70 -94 -70q-92 0 -92 98q0 109 68.5 172.5t195.5 63.5q141 0 215 -57t74 -164q0 -132 -117 -240
l-111 -100q-99 -91 -123 -170h262q48 0 72.5 -17t24.5 -61q0 -43 -24.5 -60.5t-72.5 -17.5z" />
    <glyph glyph-name="threequarters" unicode="&#xbe;" horiz-adv-x="1515" 
d="M1192 295v350h-4l-176 -350h180zM1192 63v76h-236q-54 0 -79 18t-25 62q0 45 27 98l266 508q13 25 39.5 37t83.5 12q110 0 110 -77v-502h31q30 0 52 -18t22 -60t-22 -60t-52 -18h-31v-76q0 -90 -94 -90q-92 0 -92 90zM412 45l620 1428q24 53 88 53q34 0 53 -19t19 -45
q0 -32 -12 -59l-621 -1428q-24 -53 -88 -53q-34 0 -53 19t-19 45q0 30 13 59zM313 573q-71 0 -125.5 17t-85 41t-49 56.5t-24.5 59t-6 52.5q0 98 94 98q96 0 102 -86q7 -106 98 -106q97 0 97 139q0 85 -25.5 113.5t-85.5 33.5q-53 4 -72.5 18.5t-19.5 45.5q0 32 16 45t68 22
q56 9 77 36t21 91q0 39 -19.5 66.5t-62.5 27.5q-72 0 -86 -75q-12 -68 -98 -68q-44 0 -66 20t-22 54q0 91 65.5 146t202.5 55q293 0 293 -228q0 -147 -115 -180v-4q75 -24 105.5 -75.5t30.5 -141.5q0 -134 -73.5 -203.5t-234.5 -69.5z" />
    <glyph glyph-name="questiondown" unicode="&#xbf;" horiz-adv-x="985" 
d="M274 336l60 65q69 75 93.5 122t31.5 122q5 47 34 77t82 30q51 0 84 -34.5t33 -94.5q0 -75 -30 -156t-89 -148l-73 -83q-68 -78 -92.5 -140.5t-24.5 -124.5q0 -69 33 -113t94 -44q48 0 81 30t40 82q9 75 38 105t89 30q56 0 89.5 -33.5t33.5 -90.5q0 -145 -97 -237.5
t-264 -92.5q-197 0 -298 96.5t-101 286.5q0 99 37 178.5t116 167.5zM420 979q0 65 45.5 110.5t109.5 45.5q65 0 110.5 -45.5t45.5 -110.5t-45.5 -110.5t-110.5 -45.5q-64 0 -109.5 45.5t-45.5 110.5z" />
    <glyph glyph-name="Agrave" unicode="&#xc0;" horiz-adv-x="1062" 
d="M692 369h-338l-55 -267q-14 -70 -46 -99.5t-97 -29.5q-61 0 -95 32t-34 87q0 47 16 113l262 1104q27 116 69.5 154t155.5 38q105 0 152.5 -40t73.5 -152l260 -1096q20 -90 20 -113q0 -64 -39 -95.5t-96 -31.5q-75 0 -110.5 38t-55.5 141zM399 586h250l-121 612h-4z
M526 1606l-161 149q-52 48 -52 94q0 39 27.5 63.5t62.5 24.5q27 0 43.5 -6t36.5 -26l172 -174q31 -31 31 -68q0 -39 -23.5 -64.5t-62.5 -25.5q-36 0 -74 33z" />
    <glyph glyph-name="Aacute" unicode="&#xc1;" horiz-adv-x="1062" 
d="M692 369h-338l-55 -267q-14 -70 -46 -99.5t-97 -29.5q-61 0 -95 32t-34 87q0 47 16 113l262 1104q27 116 69.5 154t155.5 38q105 0 152.5 -40t73.5 -152l260 -1096q20 -90 20 -113q0 -64 -39 -95.5t-96 -31.5q-75 0 -110.5 38t-55.5 141zM399 586h250l-121 612h-4z
M434 1731l172 174q20 20 36.5 26t43.5 6q35 0 62.5 -24.5t27.5 -63.5q0 -47 -51 -94l-162 -149q-38 -33 -74 -33q-39 0 -62.5 25.5t-23.5 64.5q0 37 31 68z" />
    <glyph glyph-name="Acircumflex" unicode="&#xc2;" horiz-adv-x="1062" 
d="M692 369h-338l-55 -267q-14 -70 -46 -99.5t-97 -29.5q-61 0 -95 32t-34 87q0 47 16 113l262 1104q27 116 69.5 154t155.5 38q105 0 152.5 -40t73.5 -152l260 -1096q20 -90 20 -113q0 -64 -39 -95.5t-96 -31.5q-75 0 -110.5 38t-55.5 141zM399 586h250l-121 612h-4z
M307 1720l88 133q32 48 66.5 66t83.5 18t83 -17.5t66 -66.5l88 -133q25 -38 25 -63q0 -37 -25 -60.5t-65 -23.5q-47 0 -74 45l-98 164l-99 -164q-27 -45 -73 -45q-40 0 -65 23.5t-25 60.5q0 27 24 63z" />
    <glyph glyph-name="Atilde" unicode="&#xc3;" horiz-adv-x="1062" 
d="M692 369h-338l-55 -267q-14 -70 -46 -99.5t-97 -29.5q-61 0 -95 32t-34 87q0 47 16 113l262 1104q27 116 69.5 154t155.5 38q105 0 152.5 -40t73.5 -152l260 -1096q20 -90 20 -113q0 -64 -39 -95.5t-96 -31.5q-75 0 -110.5 38t-55.5 141zM399 586h250l-121 612h-4z
M207 1667q0 60 66 117t135 57q58 0 141.5 -26.5t97.5 -26.5q32 0 78.5 36t75.5 36q35 0 58.5 -21t23.5 -53q0 -65 -62 -124.5t-137 -59.5q-21 0 -130 26.5t-122 26.5q-27 0 -67.5 -35t-69.5 -35q-38 0 -63 22.5t-25 59.5z" />
    <glyph glyph-name="Adieresis" unicode="&#xc4;" horiz-adv-x="1062" 
d="M692 369h-338l-55 -267q-14 -70 -46 -99.5t-97 -29.5q-61 0 -95 32t-34 87q0 47 16 113l262 1104q27 116 69.5 154t155.5 38q105 0 152.5 -40t73.5 -152l260 -1096q20 -90 20 -113q0 -64 -39 -95.5t-96 -31.5q-75 0 -110.5 38t-55.5 141zM399 586h250l-121 612h-4z
M217 1731q0 57 40 97t97 40t97.5 -40t40.5 -97t-40.5 -97.5t-97.5 -40.5t-97 40.5t-40 97.5zM598 1731q0 57 40 97t97 40t97 -40t40 -97t-40 -97.5t-97 -40.5t-97 40.5t-40 97.5z" />
    <glyph glyph-name="Aring" unicode="&#xc5;" horiz-adv-x="1062" 
d="M692 369h-338l-55 -267q-14 -70 -46 -99.5t-97 -29.5q-61 0 -95 32t-34 87q0 47 16 113l262 1104q27 116 69.5 154t155.5 38q105 0 152.5 -40t73.5 -152l260 -1096q20 -90 20 -113q0 -64 -39 -95.5t-96 -31.5q-75 0 -110.5 38t-55.5 141zM399 586h250l-121 612h-4z
M315 1759q0 91 63 154t154 63t154.5 -63t63.5 -154t-63.5 -154t-154.5 -63t-154 63t-63 154zM434 1759q0 -41 28.5 -69.5t69.5 -28.5t70 28.5t29 69.5t-29 70t-70 29t-69.5 -29t-28.5 -70z" />
    <glyph glyph-name="AE" unicode="&#xc6;" horiz-adv-x="1593" 
d="M973 1229v-340h383q73 0 108 -33.5t35 -89.5t-35 -89.5t-108 -33.5h-383v-397h407q73 0 108.5 -33.5t35.5 -89.5t-35.5 -89.5t-108.5 -33.5h-534q-76 0 -112 35.5t-36 111.5v222h-336l-67 -248q-21 -73 -51 -110.5t-94 -37.5t-101 37t-37 82q0 16 15 74l342 1198
q16 56 50 83.5t97 27.5h864q73 0 108.5 -33.5t35.5 -89.5t-35.5 -89.5t-108.5 -33.5h-407zM600 1241l-178 -655h276v655h-98z" />
    <glyph glyph-name="Ccedilla" unicode="&#xc7;" horiz-adv-x="1024" 
d="M412 -123l57 88q-61 5 -112.5 22t-88.5 40t-66.5 58.5t-49 69.5t-33 82.5t-21 87t-11 94.5t-4.5 93.5t-1 93.5v234q0 195 27 324t86.5 205.5t145.5 108t214 31.5q196 0 305 -104.5t109 -263.5q0 -164 -140 -164q-77 0 -106 35t-41 131q-20 149 -127 149q-41 0 -67.5 -9.5
t-51.5 -38t-38 -83t-21 -144t-8 -220.5v-82q0 -77 0.5 -125t3 -106t8 -93t14 -73.5t21.5 -60t31.5 -41t43 -27t56.5 -7.5q53 0 93.5 44t43.5 106q6 130 35 177.5t112 47.5q69 0 104.5 -43t35.5 -119q0 -207 -104.5 -312t-291.5 -118l-53 -80h27q82 0 130 -35t48 -108
q0 -83 -69.5 -133.5t-172.5 -50.5q-68 0 -113.5 21.5t-45.5 55.5q0 23 11.5 37.5t29.5 14.5q19 0 54 -11.5t50 -11.5q37 0 63.5 19t26.5 55q0 27 -20.5 46t-48.5 19q-10 0 -32.5 -3t-31.5 -3q-17 0 -28 10t-11 23q0 11 23 47z" />
    <glyph glyph-name="Egrave" unicode="&#xc8;" horiz-adv-x="1024" 
d="M389 643v-397h422q73 0 108 -33.5t35 -89.5t-35 -89.5t-108 -33.5h-549q-75 0 -111 35.5t-36 111.5v1180q0 76 36 112t111 36h535q73 0 108 -33.5t35 -89.5t-35 -89.5t-108 -33.5h-408v-340h381q73 0 108 -33.5t35 -89.5t-35 -89.5t-108 -33.5h-381zM518 1606l-162 149
q-51 47 -51 94q0 39 27.5 63.5t62.5 24.5q27 0 43.5 -6t36.5 -26l172 -174q31 -31 31 -68q0 -39 -23.5 -64.5t-62.5 -25.5q-36 0 -74 33z" />
    <glyph glyph-name="Eacute" unicode="&#xc9;" horiz-adv-x="1024" 
d="M389 643v-397h422q73 0 108 -33.5t35 -89.5t-35 -89.5t-108 -33.5h-549q-75 0 -111 35.5t-36 111.5v1180q0 76 36 112t111 36h535q73 0 108 -33.5t35 -89.5t-35 -89.5t-108 -33.5h-408v-340h381q73 0 108 -33.5t35 -89.5t-35 -89.5t-108 -33.5h-381zM426 1731l172 174
q20 20 36.5 26t43.5 6q35 0 62.5 -24.5t27.5 -63.5q0 -47 -51 -94l-162 -149q-38 -33 -74 -33q-39 0 -62.5 25.5t-23.5 64.5q0 37 31 68z" />
    <glyph glyph-name="Ecircumflex" unicode="&#xca;" horiz-adv-x="1024" 
d="M389 643v-397h422q73 0 108 -33.5t35 -89.5t-35 -89.5t-108 -33.5h-549q-75 0 -111 35.5t-36 111.5v1180q0 76 36 112t111 36h535q73 0 108 -33.5t35 -89.5t-35 -89.5t-108 -33.5h-408v-340h381q73 0 108 -33.5t35 -89.5t-35 -89.5t-108 -33.5h-381zM299 1720l88 133
q32 48 66.5 66t83.5 18t83 -17.5t66 -66.5l88 -133q25 -38 25 -63q0 -37 -25 -60.5t-65 -23.5q-47 0 -74 45l-98 164l-99 -164q-27 -45 -73 -45q-40 0 -65.5 23.5t-25.5 60.5q0 25 25 63z" />
    <glyph glyph-name="Edieresis" unicode="&#xcb;" horiz-adv-x="1024" 
d="M389 643v-397h422q73 0 108 -33.5t35 -89.5t-35 -89.5t-108 -33.5h-549q-75 0 -111 35.5t-36 111.5v1180q0 76 36 112t111 36h535q73 0 108 -33.5t35 -89.5t-35 -89.5t-108 -33.5h-408v-340h381q73 0 108 -33.5t35 -89.5t-35 -89.5t-108 -33.5h-381zM209 1731q0 57 40 97
t97 40t97 -40t40 -97t-40 -97.5t-97 -40.5t-97 40.5t-40 97.5zM590 1731q0 57 40 97t97 40t97 -40t40 -97t-40 -97.5t-97 -40.5t-97 40.5t-40 97.5z" />
    <glyph glyph-name="Igrave" unicode="&#xcc;" horiz-adv-x="528" 
d="M127 115v1245q0 63 40 102t97 39t97 -39t40 -102v-1245q0 -63 -40 -102.5t-97 -39.5t-97 39.5t-40 102.5zM258 1606l-162 149q-51 47 -51 94q0 39 27.5 63.5t62.5 24.5q27 0 43.5 -6t36.5 -26l172 -174q31 -31 31 -68q0 -39 -23.5 -64.5t-62.5 -25.5q-36 0 -74 33z" />
    <glyph glyph-name="Iacute" unicode="&#xcd;" horiz-adv-x="528" 
d="M127 115v1245q0 63 40 102t97 39t97 -39t40 -102v-1245q0 -63 -40 -102.5t-97 -39.5t-97 39.5t-40 102.5zM166 1731l172 174q20 20 36.5 26t43.5 6q35 0 62.5 -24.5t27.5 -63.5q0 -47 -51 -94l-162 -149q-38 -33 -74 -33q-39 0 -62.5 25.5t-23.5 64.5q0 37 31 68z" />
    <glyph glyph-name="Icircumflex" unicode="&#xce;" horiz-adv-x="528" 
d="M127 115v1245q0 63 40 102t97 39t97 -39t40 -102v-1245q0 -63 -40 -102.5t-97 -39.5t-97 39.5t-40 102.5zM27 1720l88 133q32 49 66 66.5t83 17.5t83.5 -18t66.5 -66l88 -133q24 -36 24 -63q0 -37 -25 -60.5t-65 -23.5q-47 0 -74 45l-98 164l-98 -164q-27 -45 -74 -45
q-40 0 -65 23.5t-25 60.5q0 25 25 63z" />
    <glyph glyph-name="Idieresis" unicode="&#xcf;" horiz-adv-x="528" 
d="M127 115v1245q0 63 40 102t97 39t97 -39t40 -102v-1245q0 -63 -40 -102.5t-97 -39.5t-97 39.5t-40 102.5zM-63 1731q0 57 40 97t97 40t97 -40t40 -97t-40 -97.5t-97 -40.5t-97 40.5t-40 97.5zM317 1731q0 57 40.5 97t97.5 40t97 -40t40 -97t-40 -97.5t-97 -40.5
t-97.5 40.5t-40.5 97.5z" />
    <glyph glyph-name="Eth" unicode="&#xd0;" horiz-adv-x="1099" 
d="M389 1257v-383h123q35 0 57.5 -27t22.5 -77q0 -49 -22.5 -75.5t-57.5 -26.5h-123v-451h127q76 0 120.5 38t69.5 143t25 292v119q0 252 -41.5 350t-165.5 98h-135zM115 147v521h-70q-35 0 -57.5 26.5t-22.5 75.5q0 50 22.5 77t57.5 27h70v453q0 76 36 112t111 36h359
q211 0 304 -154.5t93 -491.5v-190q0 -639 -410 -639h-346q-75 0 -111 35.5t-36 111.5z" />
    <glyph glyph-name="Ntilde" unicode="&#xd1;" horiz-adv-x="1175" 
d="M115 115v1245q0 65 40 103t111 38t113.5 -27.5t77.5 -111.5l325 -807h4v805q0 63 40.5 102t97.5 39t97 -39t40 -102v-1233q0 -71 -39.5 -112.5t-97.5 -41.5q-87 0 -129.5 28t-75.5 112l-326 819h-4v-817q0 -63 -40 -102.5t-97 -39.5t-97 39.5t-40 102.5zM250 1667
q0 60 66 117t135 57q58 0 141.5 -26.5t97.5 -26.5q32 0 78.5 36t75.5 36q35 0 58.5 -21t23.5 -53q0 -65 -62 -124.5t-137 -59.5q-21 0 -130 26.5t-122 26.5q-27 0 -67.5 -35t-69.5 -35q-38 0 -63 22.5t-25 59.5z" />
    <glyph glyph-name="Ograve" unicode="&#xd2;" horiz-adv-x="1064" 
d="M82 594v311q0 113 13.5 203.5t35.5 153t56.5 108t71 72t85 42t91.5 20.5t97 5q42 0 76 -3t73 -11t70 -22t63 -37.5t56.5 -55.5t46.5 -78t36 -102.5t22 -131.5t8 -163v-311q0 -117 -12 -209.5t-32.5 -158t-53.5 -113t-68.5 -76t-84.5 -45t-95 -22t-105 -5.5t-105 5.5
t-95 22t-84.5 45t-68 76t-53 113t-32.5 158t-12 209.5zM369 905v-311q0 -133 9 -216t31.5 -125.5t50 -56.5t72.5 -14q46 0 73.5 14t49.5 56.5t31.5 125.5t9.5 216v311q0 155 -19 241t-53 116t-92 30t-91.5 -30t-52.5 -116t-19 -241zM514 1606l-162 149q-51 47 -51 94
q0 39 27.5 63.5t62.5 24.5q27 0 43.5 -6t36.5 -26l172 -174q31 -31 31 -68q0 -39 -23.5 -64.5t-62.5 -25.5q-36 0 -74 33z" />
    <glyph glyph-name="Oacute" unicode="&#xd3;" horiz-adv-x="1064" 
d="M82 594v311q0 113 13.5 203.5t35.5 153t56.5 108t71 72t85 42t91.5 20.5t97 5q42 0 76 -3t73 -11t70 -22t63 -37.5t56.5 -55.5t46.5 -78t36 -102.5t22 -131.5t8 -163v-311q0 -117 -12 -209.5t-32.5 -158t-53.5 -113t-68.5 -76t-84.5 -45t-95 -22t-105 -5.5t-105 5.5
t-95 22t-84.5 45t-68 76t-53 113t-32.5 158t-12 209.5zM369 905v-311q0 -133 9 -216t31.5 -125.5t50 -56.5t72.5 -14q46 0 73.5 14t49.5 56.5t31.5 125.5t9.5 216v311q0 155 -19 241t-53 116t-92 30t-91.5 -30t-52.5 -116t-19 -241zM422 1731l172 174q20 20 36.5 26t43.5 6
q35 0 62.5 -24.5t27.5 -63.5q0 -47 -51 -94l-162 -149q-38 -33 -74 -33q-39 0 -62.5 25.5t-23.5 64.5q0 37 31 68z" />
    <glyph glyph-name="Ocircumflex" unicode="&#xd4;" horiz-adv-x="1064" 
d="M82 594v311q0 113 13.5 203.5t35.5 153t56.5 108t71 72t85 42t91.5 20.5t97 5q42 0 76 -3t73 -11t70 -22t63 -37.5t56.5 -55.5t46.5 -78t36 -102.5t22 -131.5t8 -163v-311q0 -117 -12 -209.5t-32.5 -158t-53.5 -113t-68.5 -76t-84.5 -45t-95 -22t-105 -5.5t-105 5.5
t-95 22t-84.5 45t-68 76t-53 113t-32.5 158t-12 209.5zM369 905v-311q0 -133 9 -216t31.5 -125.5t50 -56.5t72.5 -14q46 0 73.5 14t49.5 56.5t31.5 125.5t9.5 216v311q0 155 -19 241t-53 116t-92 30t-91.5 -30t-52.5 -116t-19 -241zM295 1720l88 133q32 49 66 66.5t83 17.5
t83.5 -18t66.5 -66l88 -133q25 -38 25 -63q0 -37 -25 -60.5t-65 -23.5q-47 0 -74 45l-99 164l-98 -164q-27 -45 -74 -45q-40 0 -65 23.5t-25 60.5q0 25 25 63z" />
    <glyph glyph-name="Otilde" unicode="&#xd5;" horiz-adv-x="1064" 
d="M82 594v311q0 113 13.5 203.5t35.5 153t56.5 108t71 72t85 42t91.5 20.5t97 5q42 0 76 -3t73 -11t70 -22t63 -37.5t56.5 -55.5t46.5 -78t36 -102.5t22 -131.5t8 -163v-311q0 -117 -12 -209.5t-32.5 -158t-53.5 -113t-68.5 -76t-84.5 -45t-95 -22t-105 -5.5t-105 5.5
t-95 22t-84.5 45t-68 76t-53 113t-32.5 158t-12 209.5zM369 905v-311q0 -133 9 -216t31.5 -125.5t50 -56.5t72.5 -14q46 0 73.5 14t49.5 56.5t31.5 125.5t9.5 216v311q0 155 -19 241t-53 116t-92 30t-91.5 -30t-52.5 -116t-19 -241zM195 1667q0 60 65.5 117t134.5 57
q58 0 142 -26.5t98 -26.5q32 0 78 36t75 36q35 0 58.5 -21t23.5 -53q0 -65 -61.5 -124.5t-136.5 -59.5q-21 0 -130 26.5t-122 26.5q-27 0 -67.5 -35t-69.5 -35q-38 0 -63 22.5t-25 59.5z" />
    <glyph glyph-name="Odieresis" unicode="&#xd6;" horiz-adv-x="1064" 
d="M82 594v311q0 113 13.5 203.5t35.5 153t56.5 108t71 72t85 42t91.5 20.5t97 5q42 0 76 -3t73 -11t70 -22t63 -37.5t56.5 -55.5t46.5 -78t36 -102.5t22 -131.5t8 -163v-311q0 -117 -12 -209.5t-32.5 -158t-53.5 -113t-68.5 -76t-84.5 -45t-95 -22t-105 -5.5t-105 5.5
t-95 22t-84.5 45t-68 76t-53 113t-32.5 158t-12 209.5zM369 905v-311q0 -133 9 -216t31.5 -125.5t50 -56.5t72.5 -14q46 0 73.5 14t49.5 56.5t31.5 125.5t9.5 216v311q0 155 -19 241t-53 116t-92 30t-91.5 -30t-52.5 -116t-19 -241zM205 1731q0 57 40 97t97 40t97 -40
t40 -97t-40 -97.5t-97 -40.5t-97 40.5t-40 97.5zM586 1731q0 57 40 97t97 40t97 -40t40 -97t-40 -97.5t-97 -40.5t-97 40.5t-40 97.5z" />
    <glyph glyph-name="multiply" unicode="&#xd7;" horiz-adv-x="1228" 
d="M461 580l-283 280q-51 51 -51 117q0 33 29 61.5t65 28.5q60 0 113 -53l280 -281l281 281q53 53 113 53q36 0 65 -28.5t29 -61.5q0 -66 -51 -117l-283 -280l283 -281q51 -51 51 -117q0 -33 -29 -61.5t-65 -28.5q-60 0 -113 53l-281 281l-280 -281q-53 -53 -113 -53
q-36 0 -65 28.5t-29 61.5q0 66 51 117z" />
    <glyph glyph-name="Oslash" unicode="&#xd8;" horiz-adv-x="1064" 
d="M369 905v-344h4l313 537q-12 104 -48.5 149t-105.5 45q-58 0 -91.5 -30t-52.5 -116t-19 -241zM696 594v321h-4l-313 -542q13 -108 47.5 -149.5t105.5 -41.5q46 0 73.5 14t49.5 56.5t31.5 125.5t9.5 216zM82 594v311q0 113 13.5 203.5t35.5 153t56.5 108t71 72t85 42
t91.5 20.5t97 5q224 0 324 -110l39 65q21 37 35 50.5t35 13.5t35 -13.5t14 -31.5q0 -19 -25 -60l-71 -123q65 -148 65 -395v-311q0 -117 -12 -209.5t-32.5 -158t-53.5 -113t-68.5 -76t-84.5 -45t-95 -22t-105 -5.5q-111 0 -189 23.5t-134 87.5l-29 -51q-43 -78 -82 -78
q-20 0 -33.5 14t-13.5 29q0 20 31 73l65 113q-65 124 -65 418z" />
    <glyph glyph-name="Ugrave" unicode="&#xd9;" horiz-adv-x="1099" 
d="M104 391v969q0 63 40.5 102t97.5 39t97 -39t40 -102v-942q0 -118 45.5 -177t126.5 -59q79 0 124.5 59t45.5 177v942q0 63 40 102t97 39t97 -39t40 -102v-969q0 -198 -113.5 -312t-330.5 -114t-332 114t-115 312zM532 1606l-161 149q-52 48 -52 94q0 39 28 63.5t63 24.5
q27 0 43 -6t36 -26l173 -174q30 -30 30 -68q0 -39 -23.5 -64.5t-62.5 -25.5q-36 0 -74 33z" />
    <glyph glyph-name="Uacute" unicode="&#xda;" horiz-adv-x="1099" 
d="M104 391v969q0 63 40.5 102t97.5 39t97 -39t40 -102v-942q0 -118 45.5 -177t126.5 -59q79 0 124.5 59t45.5 177v942q0 63 40 102t97 39t97 -39t40 -102v-969q0 -198 -113.5 -312t-330.5 -114t-332 114t-115 312zM440 1731l172 174q20 20 36.5 26t43.5 6q35 0 62.5 -24.5
t27.5 -63.5q0 -47 -51 -94l-162 -149q-38 -33 -73 -33q-39 0 -62.5 25.5t-23.5 64.5q0 38 30 68z" />
    <glyph glyph-name="Ucircumflex" unicode="&#xdb;" horiz-adv-x="1099" 
d="M104 391v969q0 63 40.5 102t97.5 39t97 -39t40 -102v-942q0 -118 45.5 -177t126.5 -59q79 0 124.5 59t45.5 177v942q0 63 40 102t97 39t97 -39t40 -102v-969q0 -198 -113.5 -312t-330.5 -114t-332 114t-115 312zM313 1720l88 133q32 48 66.5 66t83.5 18t83 -17.5
t66 -66.5l88 -133q25 -38 25 -63q0 -37 -25 -60.5t-65 -23.5q-47 0 -74 45l-98 164l-98 -164q-27 -45 -74 -45q-40 0 -65 23.5t-25 60.5q0 27 24 63z" />
    <glyph glyph-name="Udieresis" unicode="&#xdc;" horiz-adv-x="1099" 
d="M104 391v969q0 63 40.5 102t97.5 39t97 -39t40 -102v-942q0 -118 45.5 -177t126.5 -59q79 0 124.5 59t45.5 177v942q0 63 40 102t97 39t97 -39t40 -102v-969q0 -198 -113.5 -312t-330.5 -114t-332 114t-115 312zM223 1731q0 57 40 97t97 40t97.5 -40t40.5 -97
t-40.5 -97.5t-97.5 -40.5t-97 40.5t-40 97.5zM604 1731q0 57 40 97t97 40t97.5 -40t40.5 -97t-40.5 -97.5t-97.5 -40.5t-97 40.5t-40 97.5z" />
    <glyph glyph-name="Yacute" unicode="&#xdd;" horiz-adv-x="985" 
d="M356 115v491l-299 674q-24 57 -24 96q0 62 39 93.5t96 31.5q63 0 91 -25t58 -104l177 -467l186 488q24 64 57 86t84 22q56 0 93.5 -33.5t37.5 -76.5q0 -39 -20 -84l-301 -686v-506q0 -63 -40 -102.5t-97 -39.5t-97.5 39.5t-40.5 102.5zM383 1731l172 174q20 20 36.5 26
t43.5 6q35 0 62.5 -24.5t27.5 -63.5q0 -47 -51 -94l-162 -149q-38 -33 -74 -33q-39 0 -62.5 25.5t-23.5 64.5q0 37 31 68z" />
    <glyph glyph-name="Thorn" unicode="&#xde;" horiz-adv-x="1024" 
d="M115 115v1245q0 63 40 102t97 39t97 -39t40 -102v-123h215q373 0 373 -416q0 -89 -21.5 -166t-63 -137t-110 -94.5t-155.5 -34.5h-238v-274q0 -63 -40 -102.5t-97 -39.5t-97 39.5t-40 102.5zM389 1030v-434h123q90 0 134 56.5t44 156.5q0 221 -164 221h-137z" />
    <glyph glyph-name="germandbls" unicode="&#xdf;" horiz-adv-x="985" 
d="M111 123v1044q0 162 97.5 248t285.5 86q173 0 266.5 -90.5t93.5 -249.5q0 -209 -145 -268v-4q95 -26 132.5 -111.5t37.5 -228.5q0 -70 -2 -120.5t-9 -113t-20 -106t-36 -88.5t-55 -72t-80 -44t-108 -17q-52 0 -89.5 26.5t-37.5 77.5q0 42 19 66t78 45q47 17 62 76.5
t15 220.5q0 132 -19.5 193.5t-78.5 82.5q-39 13 -55.5 37t-16.5 64q0 47 16.5 67.5t57.5 40.5q72 35 72 137q0 172 -109 172q-123 0 -123 -159v-1012q0 -75 -32.5 -112.5t-91.5 -37.5t-92 37.5t-33 112.5z" />
    <glyph glyph-name="agrave" unicode="&#xe0;" horiz-adv-x="909" 
d="M809 807v-569q0 -41 7 -97t7 -69q0 -99 -125 -99q-58 0 -94.5 33t-36.5 109l-4 -2q-32 -71 -93 -105.5t-134 -34.5q-117 0 -187.5 73.5t-70.5 223.5q0 128 40.5 205t137.5 129l223 117q80 42 80 117q0 47 -25.5 78.5t-70.5 31.5q-62 0 -88.5 -31t-34.5 -100
q-4 -37 -36.5 -58.5t-82.5 -21.5t-90.5 25.5t-40.5 77.5q0 140 98.5 217.5t249.5 77.5q70 0 125.5 -9t94 -24t66.5 -39.5t44 -50.5t25.5 -61.5t12.5 -68t3 -75.5zM559 377v196l-88 -61q-82 -57 -106.5 -98t-24.5 -113q0 -62 24 -96.5t64 -34.5q60 0 95.5 58.5t35.5 148.5z
M436 1239l-162 150q-51 47 -51 94q0 39 27.5 63.5t62.5 24.5q27 0 43 -6t37 -27l172 -174q31 -31 31 -68q0 -39 -23.5 -64.5t-62.5 -25.5q-36 0 -74 33z" />
    <glyph glyph-name="aacute" unicode="&#xe1;" horiz-adv-x="909" 
d="M809 807v-569q0 -41 7 -97t7 -69q0 -99 -125 -99q-58 0 -94.5 33t-36.5 109l-4 -2q-32 -71 -93 -105.5t-134 -34.5q-117 0 -187.5 73.5t-70.5 223.5q0 128 40.5 205t137.5 129l223 117q80 42 80 117q0 47 -25.5 78.5t-70.5 31.5q-62 0 -88.5 -31t-34.5 -100
q-4 -37 -36.5 -58.5t-82.5 -21.5t-90.5 25.5t-40.5 77.5q0 140 98.5 217.5t249.5 77.5q70 0 125.5 -9t94 -24t66.5 -39.5t44 -50.5t25.5 -61.5t12.5 -68t3 -75.5zM559 377v196l-88 -61q-82 -57 -106.5 -98t-24.5 -113q0 -62 24 -96.5t64 -34.5q60 0 95.5 58.5t35.5 148.5z
M344 1364l172 174q21 21 37 27t43 6q35 0 62.5 -24.5t27.5 -63.5q0 -47 -51 -94l-162 -150q-38 -33 -74 -33q-39 0 -62.5 25.5t-23.5 64.5q0 37 31 68z" />
    <glyph glyph-name="acircumflex" unicode="&#xe2;" horiz-adv-x="909" 
d="M809 807v-569q0 -41 7 -97t7 -69q0 -99 -125 -99q-58 0 -94.5 33t-36.5 109l-4 -2q-32 -71 -93 -105.5t-134 -34.5q-117 0 -187.5 73.5t-70.5 223.5q0 128 40.5 205t137.5 129l223 117q80 42 80 117q0 47 -25.5 78.5t-70.5 31.5q-62 0 -88.5 -31t-34.5 -100
q-4 -37 -36.5 -58.5t-82.5 -21.5t-90.5 25.5t-40.5 77.5q0 140 98.5 217.5t249.5 77.5q70 0 125.5 -9t94 -24t66.5 -39.5t44 -50.5t25.5 -61.5t12.5 -68t3 -75.5zM559 377v196l-88 -61q-82 -57 -106.5 -98t-24.5 -113q0 -62 24 -96.5t64 -34.5q60 0 95.5 58.5t35.5 148.5z
M217 1354l88 133q32 48 66.5 66t83.5 18t83 -17.5t66 -66.5l88 -133q25 -38 25 -64q0 -37 -25 -60.5t-65 -23.5q-47 0 -74 45l-98 164l-99 -164q-27 -45 -73 -45q-40 0 -65 23.5t-25 60.5q0 28 24 64z" />
    <glyph glyph-name="atilde" unicode="&#xe3;" horiz-adv-x="909" 
d="M809 807v-569q0 -41 7 -97t7 -69q0 -99 -125 -99q-58 0 -94.5 33t-36.5 109l-4 -2q-32 -71 -93 -105.5t-134 -34.5q-117 0 -187.5 73.5t-70.5 223.5q0 128 40.5 205t137.5 129l223 117q80 42 80 117q0 47 -25.5 78.5t-70.5 31.5q-62 0 -88.5 -31t-34.5 -100
q-4 -37 -36.5 -58.5t-82.5 -21.5t-90.5 25.5t-40.5 77.5q0 140 98.5 217.5t249.5 77.5q70 0 125.5 -9t94 -24t66.5 -39.5t44 -50.5t25.5 -61.5t12.5 -68t3 -75.5zM559 377v196l-88 -61q-82 -57 -106.5 -98t-24.5 -113q0 -62 24 -96.5t64 -34.5q60 0 95.5 58.5t35.5 148.5z
M117 1300q0 60 65.5 117.5t134.5 57.5q58 0 142 -27t98 -27q32 0 78.5 36t75.5 36q35 0 58.5 -21t23.5 -53q0 -65 -62 -124.5t-137 -59.5q-21 0 -130 26.5t-122 26.5q-27 0 -67.5 -34.5t-69.5 -34.5q-38 0 -63 22t-25 59z" />
    <glyph glyph-name="adieresis" unicode="&#xe4;" horiz-adv-x="909" 
d="M809 807v-569q0 -41 7 -97t7 -69q0 -99 -125 -99q-58 0 -94.5 33t-36.5 109l-4 -2q-32 -71 -93 -105.5t-134 -34.5q-117 0 -187.5 73.5t-70.5 223.5q0 128 40.5 205t137.5 129l223 117q80 42 80 117q0 47 -25.5 78.5t-70.5 31.5q-62 0 -88.5 -31t-34.5 -100
q-4 -37 -36.5 -58.5t-82.5 -21.5t-90.5 25.5t-40.5 77.5q0 140 98.5 217.5t249.5 77.5q70 0 125.5 -9t94 -24t66.5 -39.5t44 -50.5t25.5 -61.5t12.5 -68t3 -75.5zM559 377v196l-88 -61q-82 -57 -106.5 -98t-24.5 -113q0 -62 24 -96.5t64 -34.5q60 0 95.5 58.5t35.5 148.5z
M127 1364q0 57 40 97t97 40t97 -40t40 -97t-40 -97t-97 -40t-97 40t-40 97zM508 1364q0 57 40 97t97 40t97 -40t40 -97t-40 -97t-97 -40t-97 40t-40 97z" />
    <glyph glyph-name="aring" unicode="&#xe5;" horiz-adv-x="909" 
d="M809 807v-569q0 -41 7 -97t7 -69q0 -99 -125 -99q-58 0 -94.5 33t-36.5 109l-4 -2q-32 -71 -93 -105.5t-134 -34.5q-117 0 -187.5 73.5t-70.5 223.5q0 128 40.5 205t137.5 129l223 117q80 42 80 117q0 47 -25.5 78.5t-70.5 31.5q-62 0 -88.5 -31t-34.5 -100
q-4 -37 -36.5 -58.5t-82.5 -21.5t-90.5 25.5t-40.5 77.5q0 140 98.5 217.5t249.5 77.5q70 0 125.5 -9t94 -24t66.5 -39.5t44 -50.5t25.5 -61.5t12.5 -68t3 -75.5zM559 377v196l-88 -61q-82 -57 -106.5 -98t-24.5 -113q0 -62 24 -96.5t64 -34.5q60 0 95.5 58.5t35.5 148.5z
M258 1423q0 91 63 154t154 63t154 -63t63 -154t-63 -154t-154 -63t-154 63t-63 154zM377 1423q0 -41 28.5 -69.5t69.5 -28.5t69.5 28.5t28.5 69.5t-28.5 70t-69.5 29t-69.5 -29t-28.5 -70z" />
    <glyph glyph-name="ae" unicode="&#xe6;" horiz-adv-x="1327" 
d="M1122 520h-329v-112q0 -46 2 -76.5t8.5 -64t18 -53t32.5 -32t51 -12.5q40 0 68.5 34.5t30.5 80.5q3 76 33.5 104.5t88.5 28.5q61 0 94 -27t33 -96q0 -149 -93 -235.5t-247 -86.5q-116 0 -187.5 34.5t-121.5 111.5q-97 -146 -268 -146q-117 0 -187.5 73.5t-70.5 223.5
q0 128 40.5 205t137.5 129l223 117q80 42 80 117q0 47 -25.5 78.5t-70.5 31.5q-62 0 -88.5 -31t-34.5 -100q-4 -37 -36.5 -58.5t-82.5 -21.5t-90.5 25.5t-40.5 77.5q0 140 98.5 217.5t249.5 77.5q164 0 246 -82q98 82 229 82q190 0 269.5 -106t79.5 -331q0 -43 -4.5 -71
t-18 -54.5t-42.5 -39.5t-75 -13zM428 170q60 0 95.5 58.5t35.5 148.5v196l-88 -61q-82 -57 -106.5 -98t-24.5 -113q0 -62 24 -96.5t64 -34.5zM793 696h219v92q0 150 -111 150q-108 0 -108 -150v-92z" />
    <glyph glyph-name="ccedilla" unicode="&#xe7;" horiz-adv-x="872" 
d="M332 -123l63 100q-59 5 -105.5 21.5t-78.5 39.5t-55.5 58.5t-36.5 71.5t-20.5 86t-10 94.5t-2.5 104.5v202q0 91 6 153.5t27.5 129t60 106.5t107.5 65.5t166 25.5q82 0 146 -22.5t100.5 -55.5t60 -76t31.5 -79.5t8 -70.5q0 -70 -34 -105.5t-89 -35.5q-65 0 -96 33
t-31 108q0 51 -26.5 79t-67.5 28q-36 0 -58.5 -18.5t-32.5 -58.5t-13 -79t-3 -104v-246q0 -140 24 -201t83 -61q91 0 94 113q4 102 34 141t93 39q56 0 89.5 -39t33.5 -107q0 -36 -6.5 -73t-26 -83.5t-50.5 -82.5t-86.5 -63.5t-127.5 -34.5l-60 -95h27q82 0 130 -35t48 -108
q0 -83 -69.5 -133.5t-171.5 -50.5q-68 0 -114 21.5t-46 55.5q0 23 11.5 37.5t29.5 14.5q19 0 54 -11.5t50 -11.5q37 0 63.5 19t26.5 55q0 27 -20.5 46t-48.5 19q-10 0 -32.5 -3t-31.5 -3q-17 0 -28 10t-11 23q0 11 23 47z" />
    <glyph glyph-name="egrave" unicode="&#xe8;" horiz-adv-x="872" 
d="M340 696h217v92q0 150 -108 150q-109 0 -109 -150v-92zM78 438v232q0 66 3 115t13 100.5t27 87t45.5 68t68.5 52t96 31t128 11.5q190 0 269 -106t79 -331q0 -43 -4 -71t-17.5 -54.5t-42.5 -39.5t-75 -13h-328v-112q0 -57 3.5 -94.5t14.5 -73t34.5 -53t60.5 -17.5
q39 0 66.5 34.5t29.5 80.5q3 76 34 104.5t89 28.5q61 0 94 -27t33 -96q0 -149 -93 -235.5t-247 -86.5q-72 0 -128 11.5t-96 31t-68.5 52t-45.5 68t-27 87t-13 100.5t-3 115zM430 1239l-162 150q-51 47 -51 94q0 39 27.5 63.5t62.5 24.5q27 0 43 -6t37 -27l172 -174
q31 -31 31 -68q0 -39 -23.5 -64.5t-62.5 -25.5q-36 0 -74 33z" />
    <glyph glyph-name="eacute" unicode="&#xe9;" horiz-adv-x="872" 
d="M340 696h217v92q0 150 -108 150q-109 0 -109 -150v-92zM78 438v232q0 66 3 115t13 100.5t27 87t45.5 68t68.5 52t96 31t128 11.5q190 0 269 -106t79 -331q0 -43 -4 -71t-17.5 -54.5t-42.5 -39.5t-75 -13h-328v-112q0 -57 3.5 -94.5t14.5 -73t34.5 -53t60.5 -17.5
q39 0 66.5 34.5t29.5 80.5q3 76 34 104.5t89 28.5q61 0 94 -27t33 -96q0 -149 -93 -235.5t-247 -86.5q-72 0 -128 11.5t-96 31t-68.5 52t-45.5 68t-27 87t-13 100.5t-3 115zM338 1364l172 174q21 21 37 27t43 6q35 0 62.5 -24.5t27.5 -63.5q0 -47 -51 -94l-162 -150
q-38 -33 -74 -33q-39 0 -62.5 25.5t-23.5 64.5q0 37 31 68z" />
    <glyph glyph-name="ecircumflex" unicode="&#xea;" horiz-adv-x="872" 
d="M340 696h217v92q0 150 -108 150q-109 0 -109 -150v-92zM78 438v232q0 66 3 115t13 100.5t27 87t45.5 68t68.5 52t96 31t128 11.5q190 0 269 -106t79 -331q0 -43 -4 -71t-17.5 -54.5t-42.5 -39.5t-75 -13h-328v-112q0 -57 3.5 -94.5t14.5 -73t34.5 -53t60.5 -17.5
q39 0 66.5 34.5t29.5 80.5q3 76 34 104.5t89 28.5q61 0 94 -27t33 -96q0 -149 -93 -235.5t-247 -86.5q-72 0 -128 11.5t-96 31t-68.5 52t-45.5 68t-27 87t-13 100.5t-3 115zM211 1354l88 133q32 48 66.5 66t83.5 18t83 -17.5t66 -66.5l88 -133q25 -38 25 -64
q0 -37 -25 -60.5t-65 -23.5q-47 0 -74 45l-98 164l-99 -164q-27 -45 -74 -45q-40 0 -65 23.5t-25 60.5q0 26 25 64z" />
    <glyph glyph-name="edieresis" unicode="&#xeb;" horiz-adv-x="872" 
d="M340 696h217v92q0 150 -108 150q-109 0 -109 -150v-92zM78 438v232q0 66 3 115t13 100.5t27 87t45.5 68t68.5 52t96 31t128 11.5q190 0 269 -106t79 -331q0 -43 -4 -71t-17.5 -54.5t-42.5 -39.5t-75 -13h-328v-112q0 -57 3.5 -94.5t14.5 -73t34.5 -53t60.5 -17.5
q39 0 66.5 34.5t29.5 80.5q3 76 34 104.5t89 28.5q61 0 94 -27t33 -96q0 -149 -93 -235.5t-247 -86.5q-72 0 -128 11.5t-96 31t-68.5 52t-45.5 68t-27 87t-13 100.5t-3 115zM121 1364q0 57 40 97t97 40t97 -40t40 -97t-40 -97t-97 -40t-97 40t-40 97zM502 1364q0 57 40 97
t97 40t97 -40t40 -97t-40 -97t-97 -40t-97 40t-40 97z" />
    <glyph glyph-name="igrave" unicode="&#xec;" 
d="M121 123v862q0 75 33 112.5t92 37.5t92 -37.5t33 -112.5v-862q0 -75 -33 -112.5t-92 -37.5t-92 37.5t-33 112.5zM227 1239l-161 150q-52 48 -52 94q0 39 27.5 63.5t62.5 24.5q27 0 43 -6t37 -27l172 -174q31 -31 31 -68q0 -39 -23.5 -64.5t-62.5 -25.5q-36 0 -74 33z" />
    <glyph glyph-name="iacute" unicode="&#xed;" 
d="M121 123v862q0 75 33 112.5t92 37.5t92 -37.5t33 -112.5v-862q0 -75 -33 -112.5t-92 -37.5t-92 37.5t-33 112.5zM135 1364l172 174q21 21 37 27t43 6q35 0 62.5 -24.5t27.5 -63.5q0 -47 -51 -94l-162 -150q-38 -33 -74 -33q-39 0 -62.5 25.5t-23.5 64.5q0 37 31 68z" />
    <glyph glyph-name="icircumflex" unicode="&#xee;" 
d="M121 123v862q0 75 33 112.5t92 37.5t92 -37.5t33 -112.5v-862q0 -75 -33 -112.5t-92 -37.5t-92 37.5t-33 112.5zM8 1354l88 133q32 48 66.5 66t83.5 18t83 -17.5t66 -66.5l88 -133q25 -38 25 -64q0 -37 -25 -60.5t-65 -23.5q-47 0 -74 45l-98 164l-99 -164
q-27 -45 -73 -45q-40 0 -65 23.5t-25 60.5q0 28 24 64z" />
    <glyph glyph-name="idieresis" unicode="&#xef;" 
d="M121 123v862q0 75 33 112.5t92 37.5t92 -37.5t33 -112.5v-862q0 -75 -33 -112.5t-92 -37.5t-92 37.5t-33 112.5zM-82 1364q0 57 40 97t97 40t97.5 -40t40.5 -97t-40.5 -97t-97.5 -40t-97 40t-40 97zM299 1364q0 57 40 97t97 40t97 -40t40 -97t-40 -97t-97 -40t-97 40
t-40 97z" />
    <glyph glyph-name="eth" unicode="&#xf0;" horiz-adv-x="909" 
d="M340 604v-227q0 -135 24 -181t91 -46t90.5 46t23.5 181v227q0 136 -23.5 181.5t-90.5 45.5t-91 -45.5t-24 -181.5zM78 356v269q0 383 352 383q91 0 145 -72l5 4q-18 145 -95 283l-96 -52q-2 -1 -12.5 -6t-14 -6.5t-13.5 -5.5t-17 -5.5t-17.5 -3t-21.5 -1.5
q-31 0 -51.5 17t-20.5 44q0 33 16 54t54 40l78 39q-26 23 -73 43t-75 38.5t-28 49.5q0 43 27 63.5t69 20.5q78 0 141.5 -29t126.5 -87l86 45q2 1 12.5 6t14 6.5t13.5 5.5t17 5.5t17.5 3t21.5 1.5q31 0 51.5 -17t20.5 -44q0 -33 -16 -54t-54 -40l-75 -41q78 -104 121.5 -248
t43.5 -289v-420q0 -85 -17.5 -150t-58 -119.5t-116.5 -84t-184 -29.5t-184 29.5t-117 84t-58.5 120t-17.5 149.5z" />
    <glyph glyph-name="ntilde" unicode="&#xf1;" horiz-adv-x="948" 
d="M111 123v862q0 75 33 112.5t92 37.5q58 0 91 -36.5t33 -107.5h5q30 69 94 106.5t139 37.5q109 0 174.5 -69.5t65.5 -205.5v-737q0 -75 -33 -112.5t-92 -37.5t-92 37.5t-33 112.5v678q0 58 -27 87.5t-69 29.5q-62 0 -97 -49t-35 -150v-596q0 -75 -32.5 -112.5t-91.5 -37.5
t-92 37.5t-33 112.5zM150 1300q0 60 65.5 117.5t134.5 57.5q58 0 142 -27t98 -27q32 0 78 36t75 36q35 0 58.5 -21t23.5 -53q0 -65 -61.5 -124.5t-136.5 -59.5q-21 0 -130 26.5t-122 26.5q-27 0 -67.5 -34.5t-69.5 -34.5q-38 0 -63 22t-25 59z" />
    <glyph glyph-name="ograve" unicode="&#xf2;" horiz-adv-x="909" 
d="M340 688v-264q0 -149 25.5 -201.5t89.5 -52.5t89 52.5t25 201.5v264q0 144 -27.5 197t-86.5 53q-39 0 -63 -20t-38 -76t-14 -154zM78 403v302q0 75 10.5 136.5t36.5 117.5t68 93.5t108.5 60t153.5 22.5t153.5 -22.5t108 -60t68 -93.5t36.5 -117.5t10 -136.5v-302
q0 -75 -10 -136.5t-36.5 -117.5t-68 -93.5t-108 -60t-153.5 -22.5t-153.5 22.5t-108.5 60t-68 93.5t-36.5 117.5t-10.5 136.5zM436 1239l-162 150q-51 47 -51 94q0 39 27.5 63.5t62.5 24.5q27 0 43 -6t37 -27l172 -174q31 -31 31 -68q0 -39 -23.5 -64.5t-62.5 -25.5
q-36 0 -74 33z" />
    <glyph glyph-name="oacute" unicode="&#xf3;" horiz-adv-x="909" 
d="M340 688v-264q0 -149 25.5 -201.5t89.5 -52.5t89 52.5t25 201.5v264q0 144 -27.5 197t-86.5 53q-39 0 -63 -20t-38 -76t-14 -154zM78 403v302q0 75 10.5 136.5t36.5 117.5t68 93.5t108.5 60t153.5 22.5t153.5 -22.5t108 -60t68 -93.5t36.5 -117.5t10 -136.5v-302
q0 -75 -10 -136.5t-36.5 -117.5t-68 -93.5t-108 -60t-153.5 -22.5t-153.5 22.5t-108.5 60t-68 93.5t-36.5 117.5t-10.5 136.5zM344 1364l172 174q21 21 37 27t43 6q35 0 62.5 -24.5t27.5 -63.5q0 -47 -51 -94l-162 -150q-38 -33 -74 -33q-39 0 -62.5 25.5t-23.5 64.5
q0 37 31 68z" />
    <glyph glyph-name="ocircumflex" unicode="&#xf4;" horiz-adv-x="909" 
d="M340 688v-264q0 -149 25.5 -201.5t89.5 -52.5t89 52.5t25 201.5v264q0 144 -27.5 197t-86.5 53q-39 0 -63 -20t-38 -76t-14 -154zM78 403v302q0 75 10.5 136.5t36.5 117.5t68 93.5t108.5 60t153.5 22.5t153.5 -22.5t108 -60t68 -93.5t36.5 -117.5t10 -136.5v-302
q0 -75 -10 -136.5t-36.5 -117.5t-68 -93.5t-108 -60t-153.5 -22.5t-153.5 22.5t-108.5 60t-68 93.5t-36.5 117.5t-10.5 136.5zM217 1354l88 133q32 48 66.5 66t83.5 18t83 -17.5t66 -66.5l88 -133q25 -38 25 -64q0 -37 -25 -60.5t-65 -23.5q-47 0 -74 45l-98 164l-99 -164
q-27 -45 -73 -45q-40 0 -65 23.5t-25 60.5q0 28 24 64z" />
    <glyph glyph-name="otilde" unicode="&#xf5;" horiz-adv-x="909" 
d="M340 688v-264q0 -149 25.5 -201.5t89.5 -52.5t89 52.5t25 201.5v264q0 144 -27.5 197t-86.5 53q-39 0 -63 -20t-38 -76t-14 -154zM78 403v302q0 75 10.5 136.5t36.5 117.5t68 93.5t108.5 60t153.5 22.5t153.5 -22.5t108 -60t68 -93.5t36.5 -117.5t10 -136.5v-302
q0 -75 -10 -136.5t-36.5 -117.5t-68 -93.5t-108 -60t-153.5 -22.5t-153.5 22.5t-108.5 60t-68 93.5t-36.5 117.5t-10.5 136.5zM117 1300q0 60 65.5 117.5t134.5 57.5q58 0 142 -27t98 -27q32 0 78.5 36t75.5 36q35 0 58.5 -21t23.5 -53q0 -65 -62 -124.5t-137 -59.5
q-21 0 -130 26.5t-122 26.5q-27 0 -67.5 -34.5t-69.5 -34.5q-38 0 -63 22t-25 59z" />
    <glyph glyph-name="odieresis" unicode="&#xf6;" horiz-adv-x="909" 
d="M340 688v-264q0 -149 25.5 -201.5t89.5 -52.5t89 52.5t25 201.5v264q0 144 -27.5 197t-86.5 53q-39 0 -63 -20t-38 -76t-14 -154zM78 403v302q0 75 10.5 136.5t36.5 117.5t68 93.5t108.5 60t153.5 22.5t153.5 -22.5t108 -60t68 -93.5t36.5 -117.5t10 -136.5v-302
q0 -75 -10 -136.5t-36.5 -117.5t-68 -93.5t-108 -60t-153.5 -22.5t-153.5 22.5t-108.5 60t-68 93.5t-36.5 117.5t-10.5 136.5zM127 1364q0 57 40 97t97 40t97 -40t40 -97t-40 -97t-97 -40t-97 40t-40 97zM508 1364q0 57 40 97t97 40t97 -40t40 -97t-40 -97t-97 -40t-97 40
t-40 97z" />
    <glyph glyph-name="divide" unicode="&#xf7;" horiz-adv-x="1228" 
d="M178 688h873q63 0 103 -31.5t40 -76.5t-40 -77t-103 -32h-873q-63 0 -103 32t-40 77t40 76.5t103 31.5zM459 1014q0 64 45.5 109.5t109.5 45.5q65 0 110.5 -45.5t45.5 -109.5t-46 -110t-110 -46t-109.5 45.5t-45.5 110.5zM459 145q0 65 45.5 110.5t109.5 45.5t110 -45.5
t46 -110.5q0 -64 -45.5 -109.5t-110.5 -45.5q-64 0 -109.5 45t-45.5 110z" />
    <glyph glyph-name="oslash" unicode="&#xf8;" horiz-adv-x="909" 
d="M344 455l217 362q-11 67 -37.5 94t-68.5 27q-39 0 -63 -20t-38 -76t-14 -154v-233h4zM90 43l49 82q-61 100 -61 278v302q0 75 10.5 136.5t36.5 117.5t68 93.5t108.5 60t153.5 22.5q162 0 254 -76l36 61q22 37 58 37q12 0 24.5 -11.5t12.5 -25.5q0 -18 -21 -55l-49 -82
q61 -100 61 -278v-302q0 -75 -10 -136.5t-36.5 -117.5t-68 -93.5t-108 -60t-153.5 -22.5q-166 0 -254 78l-37 -61q-25 -41 -51 -41q-16 0 -29.5 11.5t-13.5 27.5q0 21 20 55zM565 655l-217 -364q10 -68 35.5 -94.5t71.5 -26.5q64 0 89 52.5t25 201.5v231h-4z" />
    <glyph glyph-name="ugrave" unicode="&#xf9;" horiz-adv-x="948" 
d="M111 248v737q0 75 33 112.5t92 37.5t91.5 -37.5t32.5 -112.5v-678q0 -117 97 -117q67 0 99 48t32 151v596q0 75 33 112.5t92 37.5t92 -37.5t33 -112.5v-862q0 -75 -33 -112.5t-92 -37.5q-58 0 -91.5 37t-33.5 107h-4q-30 -69 -94 -106.5t-140 -37.5q-109 0 -174 69.5
t-65 205.5zM469 1239l-162 150q-51 47 -51 94q0 39 27.5 63.5t62.5 24.5q27 0 43 -6t37 -27l172 -174q31 -31 31 -68q0 -39 -23.5 -64.5t-62.5 -25.5q-36 0 -74 33z" />
    <glyph glyph-name="uacute" unicode="&#xfa;" horiz-adv-x="948" 
d="M111 248v737q0 75 33 112.5t92 37.5t91.5 -37.5t32.5 -112.5v-678q0 -117 97 -117q67 0 99 48t32 151v596q0 75 33 112.5t92 37.5t92 -37.5t33 -112.5v-862q0 -75 -33 -112.5t-92 -37.5q-58 0 -91.5 37t-33.5 107h-4q-30 -69 -94 -106.5t-140 -37.5q-109 0 -174 69.5
t-65 205.5zM377 1364l172 174q21 21 37 27t43 6q35 0 62.5 -24.5t27.5 -63.5q0 -47 -51 -94l-162 -150q-38 -33 -74 -33q-39 0 -62.5 25.5t-23.5 64.5q0 37 31 68z" />
    <glyph glyph-name="ucircumflex" unicode="&#xfb;" horiz-adv-x="948" 
d="M111 248v737q0 75 33 112.5t92 37.5t91.5 -37.5t32.5 -112.5v-678q0 -117 97 -117q67 0 99 48t32 151v596q0 75 33 112.5t92 37.5t92 -37.5t33 -112.5v-862q0 -75 -33 -112.5t-92 -37.5q-58 0 -91.5 37t-33.5 107h-4q-30 -69 -94 -106.5t-140 -37.5q-109 0 -174 69.5
t-65 205.5zM250 1354l88 133q32 49 66 66.5t83 17.5t83.5 -18t66.5 -66l88 -133q25 -38 25 -64q0 -37 -25.5 -60.5t-65.5 -23.5q-46 0 -73 45l-99 164l-98 -164q-27 -45 -74 -45q-40 0 -65 23.5t-25 60.5q0 26 25 64z" />
    <glyph glyph-name="udieresis" unicode="&#xfc;" horiz-adv-x="948" 
d="M111 248v737q0 75 33 112.5t92 37.5t91.5 -37.5t32.5 -112.5v-678q0 -117 97 -117q67 0 99 48t32 151v596q0 75 33 112.5t92 37.5t92 -37.5t33 -112.5v-862q0 -75 -33 -112.5t-92 -37.5q-58 0 -91.5 37t-33.5 107h-4q-30 -69 -94 -106.5t-140 -37.5q-109 0 -174 69.5
t-65 205.5zM160 1364q0 57 40 97t97 40t97 -40t40 -97t-40 -97t-97 -40t-97 40t-40 97zM541 1364q0 57 40 97t97 40t97 -40t40 -97t-40 -97t-97 -40t-97 40t-40 97z" />
    <glyph glyph-name="yacute" unicode="&#xfd;" horiz-adv-x="872" 
d="M299 -90l-250 1042q-10 58 -10 66q0 54 36 85.5t97 31.5q112 0 129 -97l145 -772h5l122 731q12 67 42.5 102.5t93.5 35.5q55 0 90 -30t35 -81q0 -18 -15 -80l-260 -1096q-27 -114 -58.5 -169t-89 -79t-165.5 -24q-117 0 -117 109q0 42 21 65t77 29q22 2 31.5 4t23.5 8.5
t19.5 20t5.5 36.5q0 31 -8 62zM326 1364l172 174q21 21 37 27t43 6q35 0 62.5 -24.5t27.5 -63.5q0 -46 -52 -94l-161 -150q-38 -33 -74 -33q-39 0 -62.5 25.5t-23.5 64.5q0 37 31 68z" />
    <glyph glyph-name="thorn" unicode="&#xfe;" horiz-adv-x="948" 
d="M371 659v-219q0 -130 28 -200t97 -70q64 0 84 68.5t20 222.5v155q0 184 -21.5 248t-84.5 64q-123 0 -123 -269zM121 -274v1626q0 74 33 111.5t92 37.5t92 -37.5t33 -111.5v-367h4q31 70 92.5 110t128.5 40q65 0 113.5 -24t77.5 -62.5t46 -97t23 -117t6 -132.5v-296
q0 -74 -6 -132.5t-23 -117t-46 -97t-77.5 -62.5t-113.5 -24q-72 0 -130 31.5t-91 93.5l-4 4v-376q0 -75 -33 -112.5t-92 -37.5t-92 37.5t-33 112.5z" />
    <glyph glyph-name="ydieresis" unicode="&#xff;" horiz-adv-x="872" 
d="M299 -90l-250 1042q-10 58 -10 66q0 54 36 85.5t97 31.5q112 0 129 -97l145 -772h5l122 731q12 67 42.5 102.5t93.5 35.5q55 0 90 -30t35 -81q0 -18 -15 -80l-260 -1096q-27 -114 -58.5 -169t-89 -79t-165.5 -24q-117 0 -117 109q0 42 21 65t77 29q22 2 31.5 4t23.5 8.5
t19.5 20t5.5 36.5q0 31 -8 62zM109 1364q0 57 40 97t97 40t97 -40t40 -97t-40 -97t-97 -40t-97 40t-40 97zM489 1364q0 57 40.5 97t97.5 40t97 -40t40 -97t-40 -97t-97 -40t-97.5 40t-40.5 97z" />
    <glyph glyph-name="dotlessi" unicode="&#x131;" 
d="M121 123v862q0 75 33 112.5t92 37.5t92 -37.5t33 -112.5v-862q0 -75 -33 -112.5t-92 -37.5t-92 37.5t-33 112.5z" />
    <glyph glyph-name="Lslash" unicode="&#x141;" horiz-adv-x="985" 
d="M115 147v328q-27 -18 -64 -18q-41 0 -68.5 26t-27.5 70q0 60 63 106l97 70v631q0 63 40 102t97 39t97 -39t40 -102v-430l143 104q45 33 91 33q41 0 68.5 -26t27.5 -70q0 -60 -64 -107l-266 -194v-424h412q73 0 108 -33.5t35 -89.5t-35 -89.5t-108 -33.5h-539
q-75 0 -111 35.5t-36 111.5z" />
    <glyph glyph-name="lslash" unicode="&#x142;" 
d="M121 123v418q-32 -21 -66 -21q-41 0 -67.5 26.5t-26.5 61.5q0 53 53 103l107 86v555q0 74 33 111.5t92 37.5t92 -37.5t33 -111.5v-359q28 21 65 21q41 0 67.5 -26.5t26.5 -61.5q0 -53 -53 -103l-106 -84v-616q0 -75 -33 -112.5t-92 -37.5t-92 37.5t-33 112.5z" />
    <glyph glyph-name="OE" unicode="&#x152;" horiz-adv-x="1630" 
d="M82 594v311q0 113 13.5 203.5t35.5 153t56.5 108t71 72t85 42t91.5 20.5t97 5q166 0 242 -79v-5h4q7 22 34 36t60 14h545q73 0 108.5 -33.5t35.5 -89.5t-35.5 -89.5t-108.5 -33.5h-446v-340h415q73 0 108.5 -33.5t35.5 -89.5t-35.5 -89.5t-108.5 -33.5h-415v-397h446
q73 0 108.5 -33.5t35.5 -89.5t-35.5 -89.5t-108.5 -33.5h-497q-122 0 -146 43q-75 -78 -242 -78q-59 0 -105 5.5t-95 22t-84.5 45t-68 76t-53 113t-32.5 158t-12 209.5zM369 905v-311q0 -133 9 -216t31.5 -125.5t50 -56.5t72.5 -14q46 0 73.5 14t49.5 56.5t31.5 125.5
t9.5 216v311q0 155 -19 241t-53 116t-92 30t-91.5 -30t-52.5 -116t-19 -241z" />
    <glyph glyph-name="oe" unicode="&#x153;" horiz-adv-x="1366" 
d="M356 645v-182q0 -75 4 -122.5t15.5 -89.5t35 -61.5t60.5 -19.5q30 0 51 12.5t33 32.5t18.5 56.5t8.5 73.5t2 93v232q0 56 -2 93t-8.5 73.5t-18.5 56.5t-33 32.5t-51 12.5q-37 0 -60.5 -19.5t-35 -61.5t-15.5 -89.5t-4 -122.5zM834 696h217v92q0 150 -109 150
q-108 0 -108 -150v-92zM94 436v275q0 424 365 424q68 0 138 -23t122 -63v2q108 84 233 84q190 0 269 -106t79 -331q0 -43 -4 -71t-17.5 -54.5t-42.5 -39.5t-75 -13h-327v-112q0 -46 2 -76.5t8.5 -64t18 -53t32.5 -32t51 -12.5q39 0 66.5 34.5t29.5 80.5q3 76 34 104.5
t89 28.5q61 0 94 -27t33 -96q0 -149 -93 -235.5t-247 -86.5q-170 0 -264 88q-39 -43 -104 -65.5t-131 -22.5q-198 0 -278.5 116t-80.5 347z" />
    <glyph glyph-name="Scaron" unicode="&#x160;" horiz-adv-x="1024" 
d="M535 573l-265 187q-103 74 -144.5 160t-41.5 204q0 95 35 169.5t95 121t137.5 70.5t166.5 24q88 0 160 -24t117 -62t75.5 -88t43 -99t12.5 -97q0 -67 -37.5 -103.5t-97.5 -36.5q-78 0 -104 34.5t-36 121.5q-16 137 -147 137q-64 0 -105 -38t-41 -103q0 -61 28 -109
t120 -110l203 -133q81 -53 130 -105.5t79 -131.5t30 -183q0 -195 -118 -304.5t-349 -109.5q-74 0 -135.5 18t-102.5 46.5t-72.5 67t-48.5 75.5t-28 75.5t-14.5 64t-3.5 44.5q0 86 29.5 136.5t109.5 50.5q66 0 97.5 -40.5t37.5 -137.5q5 -81 45 -132t119 -51q78 0 119 48.5
t41 123.5q0 72 -30 117t-109 102zM362 1657l-88 133q-24 36 -24 63q0 37 25 60.5t65 23.5q47 0 74 -45l98 -163l98 163q27 45 74 45q40 0 65 -23.5t25 -60.5q0 -27 -24 -63l-88 -133q-32 -48 -66.5 -66t-83.5 -18t-83.5 18t-66.5 66z" />
    <glyph glyph-name="scaron" unicode="&#x161;" horiz-adv-x="833" 
d="M432 401l-190 142q-102 76 -135 138t-33 155q0 146 93 222.5t249 76.5q76 0 136.5 -20t97 -50t60.5 -68.5t33 -71.5t9 -63q0 -60 -30 -91.5t-101 -31.5q-97 0 -103 97q-3 56 -31.5 84t-76.5 28q-39 0 -62.5 -23.5t-23.5 -62.5q0 -64 55 -106l153 -117q67 -50 104.5 -82.5
t71.5 -74t48 -85t14 -98.5q0 -157 -101 -241.5t-261 -84.5q-77 0 -138.5 19.5t-99 50.5t-62.5 72.5t-35 82t-10 81.5q0 65 34 94.5t85 29.5q67 0 96 -36t35 -117q8 -90 109 -90q98 0 98 102q0 42 -18 71t-70 68zM268 1290l-88 133q-24 36 -24 64q0 37 25 60.5t65 23.5
q46 0 73 -45l99 -164l98 164q27 45 74 45q40 0 65 -23.5t25 -60.5q0 -27 -25 -64l-88 -133q-32 -49 -66 -66.5t-83 -17.5t-83.5 18t-66.5 66z" />
    <glyph glyph-name="Ydieresis" unicode="&#x178;" horiz-adv-x="985" 
d="M356 115v491l-299 674q-24 57 -24 96q0 62 39 93.5t96 31.5q63 0 91 -25t58 -104l177 -467l186 488q24 64 57 86t84 22q56 0 93.5 -33.5t37.5 -76.5q0 -39 -20 -84l-301 -686v-506q0 -63 -40 -102.5t-97 -39.5t-97.5 39.5t-40.5 102.5zM166 1731q0 57 40 97t97 40t97 -40
t40 -97t-40 -97.5t-97 -40.5t-97 40.5t-40 97.5zM547 1731q0 57 40 97t97 40t97 -40t40 -97t-40 -97.5t-97 -40.5t-97 40.5t-40 97.5z" />
    <glyph glyph-name="Zcaron" unicode="&#x17d;" horiz-adv-x="1062" 
d="M649 1229h-424q-73 0 -108 33.5t-35 89.5t35 89.5t108 33.5h631q145 0 145 -121q0 -63 -51 -146l-559 -962h481q73 0 108.5 -33.5t35.5 -89.5t-35.5 -89.5t-108.5 -33.5h-682q-67 0 -105 40t-38 89q0 28 9 53.5t36 71.5zM383 1657l-88 133q-25 38 -25 63q0 37 25 60.5
t65 23.5q47 0 74 -45l98 -163l99 163q27 45 74 45q40 0 65 -23.5t25 -60.5q0 -25 -25 -63l-88 -133q-32 -48 -66.5 -66t-83.5 -18t-83 17.5t-66 66.5z" />
    <glyph glyph-name="zcaron" unicode="&#x17e;" horiz-adv-x="872" 
d="M182 1108h502q129 0 129 -86q0 -32 -9 -57t-36 -72l-395 -676h321q125 0 125 -106q0 -111 -125 -111h-520q-63 0 -92 26t-29 78q0 47 35 111l395 676h-301q-125 0 -125 106q0 111 125 111zM287 1290l-88 133q-25 37 -25 64q0 37 25 60.5t65 23.5q47 0 74 -45l98 -164
l99 164q27 45 73 45q40 0 65 -23.5t25 -60.5q0 -28 -24 -64l-88 -133q-32 -48 -66.5 -66t-83.5 -18t-83 17.5t-66 66.5z" />
    <glyph glyph-name="florin" unicode="&#x192;" horiz-adv-x="983" 
d="M330 614h-131q-48 0 -72.5 27t-24.5 61t24.5 61.5t72.5 27.5h147l45 397q16 145 86 216t215 71q74 0 113 -32.5t39 -88.5q0 -107 -96 -113q-53 -3 -73 -28.5t-28 -88.5l-39 -333h140q48 0 72 -27.5t24 -61.5t-24 -61t-72 -27h-156l-62 -589q-33 -330 -297 -330
q-86 0 -129 35t-43 88q0 52 26 79t97 31q44 1 65 41.5t30 139.5z" />
    <glyph glyph-name="circumflex" unicode="&#x2c6;" 
d="M8 1354l88 133q32 48 66.5 66t83.5 18t83 -17.5t66 -66.5l88 -133q25 -38 25 -64q0 -37 -25 -60.5t-65 -23.5q-47 0 -74 45l-98 164l-99 -164q-27 -45 -73 -45q-40 0 -65 23.5t-25 60.5q0 28 24 64z" />
    <glyph glyph-name="caron" unicode="&#x2c7;" 
d="M96 1290l-88 133q-24 36 -24 64q0 37 25 60.5t65 23.5q46 0 73 -45l99 -164l98 164q27 45 74 45q40 0 65 -23.5t25 -60.5q0 -27 -25 -64l-88 -133q-32 -49 -66 -66.5t-83 -17.5t-83.5 18t-66.5 66z" />
    <glyph glyph-name="uni02C9" unicode="&#x2c9;" 
d="M2 1448h487q101 0 101 -88t-101 -88h-487q-100 0 -100 88t100 88z" />
    <glyph glyph-name="breve" unicode="&#x2d8;" 
d="M-31 1491q0 35 21 57.5t55 22.5q48 0 76 -60q25 -54 51 -74t74 -20t74 20t51 74q28 60 75 60q34 0 55 -22.5t21 -57.5q0 -21 -9.5 -50t-31.5 -62.5t-53 -62t-79 -47t-103 -18.5q-68 0 -124.5 28t-88 68t-48 78t-16.5 66z" />
    <glyph glyph-name="dotaccent" unicode="&#x2d9;" 
d="M109 1364q0 57 40 97t97 40t97 -40t40 -97t-40 -97t-97 -40t-97 40t-40 97z" />
    <glyph glyph-name="ring" unicode="&#x2da;" 
d="M29 1423q0 91 63 154t154 63t154 -63t63 -154t-63 -154t-154 -63t-154 63t-63 154zM147 1423q0 -41 29 -69.5t70 -28.5t69.5 28.5t28.5 69.5t-28.5 70t-69.5 29t-70 -29t-29 -70z" />
    <glyph glyph-name="ogonek" unicode="&#x2db;" 
d="M297 0h102q-66 -49 -97.5 -109.5t-31.5 -115.5q0 -94 76 -94q22 0 52 11t38 11q20 0 32.5 -16.5t12.5 -40.5q0 -37 -41.5 -62.5t-130.5 -25.5q-101 0 -153 47.5t-52 134.5q0 81 54.5 152.5t138.5 107.5z" />
    <glyph glyph-name="tilde" unicode="&#x2dc;" 
d="M-92 1300q0 60 66 117.5t135 57.5q58 0 141.5 -27t97.5 -27q32 0 78.5 36t75.5 36q35 0 58.5 -21t23.5 -53q0 -65 -62 -124.5t-137 -59.5q-21 0 -130 26.5t-122 26.5q-27 0 -67.5 -34.5t-69.5 -34.5q-38 0 -63 22t-25 59z" />
    <glyph glyph-name="hungarumlaut" unicode="&#x2dd;" 
d="M-66 1364l172 174q21 21 37 27t43 6q35 0 62.5 -24.5t27.5 -63.5q0 -47 -51 -94l-162 -150q-38 -33 -73 -33q-39 0 -62.5 25.5t-23.5 64.5q0 38 30 68zM336 1364l172 174q21 21 37 27t43 6q35 0 62.5 -24.5t27.5 -63.5q0 -47 -51 -94l-162 -150q-38 -33 -74 -33
q-39 0 -62.5 25.5t-23.5 64.5q0 37 31 68z" />
    <glyph glyph-name="uni03A9" unicode="&#x3a9;" horiz-adv-x="1230" 
d="M301 199v6q-92 109 -151.5 262t-59.5 336q0 184 66 335.5t188 240.5t277 89q123 0 223.5 -58.5t162.5 -153t95 -207.5t33 -230q0 -186 -63 -349t-152 -265v-6h239v-199h-457v143q84 69 141.5 229t57.5 392q0 98 -18 186t-52 158.5t-89.5 112t-125.5 41.5
q-134 0 -213 -141.5t-79 -366.5q0 -214 58 -380t138 -231v-143h-457v199h238z" />
    <glyph glyph-name="uni03BC" unicode="&#x3bc;" horiz-adv-x="948" 
d="M111 -274v1259q0 75 33 112.5t92 37.5t91.5 -37.5t32.5 -112.5v-678q0 -117 97 -117q67 0 99 48t32 151v596q0 75 33 112.5t92 37.5t92 -37.5t33 -112.5v-862q0 -75 -33 -112.5t-92 -37.5q-58 0 -91.5 37t-33.5 107h-4q-24 -56 -74 -97q-57 -47 -113 -47q-26 0 -32 19h-5
v-266q0 -75 -32.5 -112.5t-91.5 -37.5t-92 37.5t-33 112.5z" />
    <glyph glyph-name="pi" unicode="&#x3c0;" horiz-adv-x="1077" 
d="M1034 879h-127v-592q0 -178 25 -287h-221q-31 70 -31 283v596h-246q-7 -192 -39.5 -454.5t-79.5 -424.5h-219q45 182 77.5 440.5t35.5 438.5q-103 0 -170 -19l-27 162q79 65 293 65h746z" />
    <glyph glyph-name="endash" unicode="&#x2013;" horiz-adv-x="1024" 
d="M877 463h-730q-62 0 -94.5 33.5t-32.5 83.5q0 49 32.5 82.5t94.5 33.5h730q62 0 94.5 -33.5t32.5 -82.5q0 -50 -32.5 -83.5t-94.5 -33.5z" />
    <glyph glyph-name="emdash" unicode="&#x2014;" horiz-adv-x="2048" 
d="M1901 463h-1754q-62 0 -94.5 33.5t-32.5 83.5q0 49 32.5 82.5t94.5 33.5h1754q62 0 94.5 -33.5t32.5 -82.5q0 -50 -32.5 -83.5t-94.5 -33.5z" />
    <glyph glyph-name="quoteleft" unicode="&#x2018;" horiz-adv-x="454" 
d="M63 1130q0 154 89.5 262.5t183.5 108.5q24 0 39.5 -15.5t15.5 -35.5q0 -23 -11 -34.5t-42 -22.5q-42 -14 -87 -57t-56 -93q18 2 43 2q76 0 114.5 -48t38.5 -101q0 -67 -46.5 -114.5t-117.5 -47.5q-79 0 -121.5 60t-42.5 136z" />
    <glyph glyph-name="quoteright" unicode="&#x2019;" horiz-adv-x="454" 
d="M63 1339q0 67 46.5 114.5t117.5 47.5q79 0 121.5 -60t42.5 -136q0 -154 -89 -262.5t-183 -108.5q-24 0 -40 15.5t-16 35.5q0 23 11.5 34.5t42.5 22.5q42 14 87 57t56 93q-18 -2 -43 -2q-76 0 -115 48t-39 101z" />
    <glyph glyph-name="quotesinglbase" unicode="&#x201a;" horiz-adv-x="454" 
d="M63 123q0 67 46.5 114.5t117.5 47.5q79 0 121.5 -60.5t42.5 -136.5q0 -154 -89 -262.5t-183 -108.5q-24 0 -40 16t-16 36q0 23 11.5 34.5t42.5 22.5q42 14 87 56.5t56 92.5q-18 -2 -43 -2q-76 0 -115 48.5t-39 101.5z" />
    <glyph glyph-name="quotedblleft" unicode="&#x201c;" horiz-adv-x="872" 
d="M471 1130q0 154 89 262.5t183 108.5q24 0 40 -15.5t16 -35.5q0 -23 -11.5 -34.5t-42.5 -22.5q-42 -14 -87 -57t-56 -93q18 2 43 2q76 0 115 -48t39 -101q0 -67 -46.5 -114.5t-117.5 -47.5q-79 0 -121.5 60t-42.5 136zM74 1130q0 154 89 262.5t183 108.5q24 0 39.5 -15.5
t15.5 -35.5q0 -23 -11 -34.5t-42 -22.5q-42 -14 -87 -57t-56 -93q18 2 43 2q76 0 114.5 -48t38.5 -101q0 -67 -46 -114.5t-117 -47.5q-79 0 -121.5 60t-42.5 136z" />
    <glyph glyph-name="quotedblright" unicode="&#x201d;" horiz-adv-x="872" 
d="M74 1339q0 67 46.5 114.5t117.5 47.5q79 0 121 -60t42 -136q0 -154 -89 -262.5t-183 -108.5q-24 0 -39.5 15.5t-15.5 35.5q0 23 11 34.5t42 22.5q42 14 87 57t56 93q-18 -2 -43 -2q-76 0 -114.5 48t-38.5 101zM471 1339q0 67 46.5 114.5t117.5 47.5q79 0 121.5 -60
t42.5 -136q0 -154 -89.5 -262.5t-183.5 -108.5q-24 0 -39.5 15.5t-15.5 35.5q0 23 11 34.5t42 22.5q42 14 87.5 57t56.5 93q-18 -2 -43 -2q-76 0 -115 48t-39 101z" />
    <glyph glyph-name="quotedblbase" unicode="&#x201e;" horiz-adv-x="872" 
d="M74 123q0 67 46.5 114.5t117.5 47.5q79 0 121 -60.5t42 -136.5q0 -154 -89 -262.5t-183 -108.5q-24 0 -39.5 16t-15.5 36q0 23 11 34.5t42 22.5q42 14 87 56.5t56 92.5q-18 -2 -43 -2q-76 0 -114.5 48.5t-38.5 101.5zM471 123q0 67 46.5 114.5t117.5 47.5
q79 0 121.5 -60.5t42.5 -136.5q0 -154 -89.5 -262.5t-183.5 -108.5q-24 0 -39.5 16t-15.5 36q0 23 11 34.5t42 22.5q42 14 87.5 56.5t56.5 92.5q-18 -2 -43 -2q-76 0 -115 48.5t-39 101.5z" />
    <glyph glyph-name="dagger" unicode="&#x2020;" horiz-adv-x="983" 
d="M367 778h-209q-60 0 -89.5 29.5t-29.5 79.5t29.5 79t89.5 29h209v357q0 74 33 111.5t92 37.5t91.5 -37t32.5 -112v-357h209q60 0 89.5 -29t29.5 -79t-29.5 -79.5t-89.5 -29.5h-209v-1011q0 -75 -32.5 -112.5t-91.5 -37.5t-92 37.5t-33 112.5v1011z" />
    <glyph glyph-name="daggerdbl" unicode="&#x2021;" horiz-adv-x="983" 
d="M367 274v570h-209q-60 0 -89.5 29t-29.5 79t29.5 79.5t89.5 29.5h209v291q0 74 33 111.5t92 37.5t91.5 -37t32.5 -112v-291h209q60 0 89.5 -29.5t29.5 -79.5t-29.5 -79t-89.5 -29h-209v-570h209q60 0 89.5 -29t29.5 -79t-29.5 -79.5t-89.5 -29.5h-209v-290
q0 -75 -32.5 -112.5t-91.5 -37.5t-92 37.5t-33 112.5v290h-209q-60 0 -89.5 29.5t-29.5 79.5t29.5 79t89.5 29h209z" />
    <glyph glyph-name="bullet" unicode="&#x2022;" horiz-adv-x="1024" 
d="M143 737q0 152 108.5 260.5t260.5 108.5t260.5 -108.5t108.5 -260.5t-108.5 -260t-260.5 -108t-260.5 108t-108.5 260z" />
    <glyph glyph-name="ellipsis" unicode="&#x2026;" horiz-adv-x="2048" 
d="M186 129q0 65 46 110.5t110 45.5t110 -45.5t46 -110.5t-46 -110.5t-110 -45.5t-110 45.5t-46 110.5zM868 129q0 65 46 110.5t110 45.5t110 -45.5t46 -110.5t-46 -110.5t-110 -45.5t-110 45.5t-46 110.5zM1550 129q0 65 46 110.5t110 45.5t110 -45.5t46 -110.5t-46 -110.5
t-110 -45.5t-110 45.5t-46 110.5z" />
    <glyph glyph-name="perthousand" unicode="&#x2030;" horiz-adv-x="2048" 
d="M938 330q0 -113 18.5 -157t79.5 -44t80 44.5t19 156.5t-19 156t-80 44t-79.5 -44t-18.5 -156zM741 344q0 171 68 256.5t227 85.5t227 -85.5t68 -256.5q0 -70 -5.5 -120.5t-23.5 -100.5t-49.5 -81t-86 -50t-130.5 -19t-130.5 19t-86 50t-49.5 81t-23.5 100.5t-5.5 120.5z
M1622 330q0 -113 18.5 -157t79.5 -44t80 44.5t19 156.5t-19 156t-80 44t-79.5 -44t-18.5 -156zM1425 344q0 171 68 256.5t227 85.5t227 -85.5t68 -256.5q0 -70 -5.5 -120.5t-23.5 -100.5t-49.5 -81t-86 -50t-130.5 -19t-130.5 19t-86 50t-49.5 81t-23.5 100.5t-5.5 120.5z
M229 1118q0 -112 19 -156t80 -44t79.5 44t18.5 156q0 113 -18.5 157t-79.5 44t-80 -44.5t-19 -156.5zM33 1133q0 171 68 256.5t227 85.5t227 -85.5t68 -256.5q0 -70 -5.5 -120.5t-23.5 -100.5t-49.5 -81t-86 -50t-130.5 -19t-130.5 19t-86 50t-49.5 81t-23.5 100.5
t-5.5 120.5zM1180 1401l-846 -1421q-21 -33 -41 -45.5t-47 -12.5q-32 0 -54 20t-22 44q0 25 20 61l846 1421q21 33 41 45.5t47 12.5q32 0 54 -20t22 -44q0 -25 -20 -61z" />
    <glyph glyph-name="guilsinglleft" unicode="&#x2039;" horiz-adv-x="530" 
d="M248 580l149 -131q29 -26 42.5 -43t13.5 -35q0 -42 -27.5 -66t-63.5 -24q-35 0 -63 28l-147 133q-43 38 -58.5 69t-15.5 69t15.5 68.5t58.5 68.5l147 133q29 29 63 29q36 0 63.5 -24.5t27.5 -66.5q0 -18 -13 -34.5t-43 -42.5z" />
    <glyph glyph-name="guilsinglright" unicode="&#x203a;" horiz-adv-x="530" 
d="M283 580l-150 131q-29 26 -42 42.5t-13 34.5q0 42 27 66.5t63 24.5q34 0 63 -29l148 -133q43 -38 58.5 -68.5t15.5 -68.5t-15.5 -69t-58.5 -69l-148 -133q-28 -28 -63 -28q-36 0 -63 24t-27 66q0 30 55 78z" />
    <glyph glyph-name="fraction" unicode="&#x2044;" horiz-adv-x="342" 
d="M-213 45l621 1428q24 53 88 53q34 0 52.5 -19t18.5 -45q0 -32 -12 -59l-621 -1428q-24 -53 -88 -53q-34 0 -52.5 19t-18.5 45q0 32 12 59z" />
    <glyph glyph-name="Euro" unicode="&#x20ac;" horiz-adv-x="983" 
d="M995 1298q0 -48 -29 -81t-75 -33q-35 0 -71 18t-79.5 36.5t-95.5 18.5q-60 0 -108 -45t-75 -110.5t-44 -151.5h272q27 0 43.5 -2t35 -9t27.5 -23.5t9 -43.5q0 -51 -29.5 -67.5t-85.5 -16.5h-293v-114h238q27 0 43.5 -2t35 -9t27.5 -23.5t9 -43.5q0 -51 -29.5 -67.5
t-85.5 -16.5h-221q51 -322 233 -322q47 0 93.5 21.5t87.5 43t73 21.5q42 0 66 -29.5t24 -76.5q0 -48 -27.5 -85t-67.5 -57.5t-93.5 -33.5t-97.5 -17t-87 -4q-205 0 -326 146t-157 393q-25 0 -42 2.5t-34.5 10t-26.5 24.5t-9 43q0 46 27 63t73 19v35q0 52 2 79q-49 0 -77 16
t-28 64q0 51 34 67.5t89 14.5q42 235 166.5 379t319.5 144q366 0 366 -175z" />
    <glyph glyph-name="afii61289" unicode="&#x2113;" horiz-adv-x="913" 
d="M793 346l92 -96q-124 -268 -363 -268q-85 0 -149 28.5t-101.5 78.5t-56.5 111t-22 134v26q-17 -16 -54.5 -48t-42.5 -36l-55 127q18 18 50 47.5t55.5 52t43.5 44.5v540q0 248 92.5 376t231.5 128q121 0 182.5 -97.5t61.5 -260.5q0 -325 -344 -709v-106q0 -124 43.5 -186
t115.5 -62q65 0 121.5 50t98.5 126zM414 1065v-315q97 130 154 259t57 238q0 84 -23 126t-76 42q-22 0 -41 -17t-35.5 -55t-26 -109t-9.5 -169z" />
    <glyph glyph-name="trademark" unicode="&#x2122;" horiz-adv-x="2048" 
d="M291 745v543h-135q-51 0 -76 28.5t-25 65.5q0 36 25 64.5t76 28.5h506q51 0 74.5 -28t23.5 -65q0 -38 -23.5 -66t-74.5 -28h-138v-543q0 -38 -13.5 -66t-33.5 -41.5t-37.5 -19.5t-31.5 -6t-31.5 6t-38 19.5t-34 41.5t-13.5 66zM1696 745v424h-4l-187 -448
q-44 -109 -116 -109q-73 0 -117 109l-187 448h-4v-424q0 -59 -31.5 -96t-76.5 -37t-77 37t-32 96v558q0 52 16.5 90t43 57.5t54.5 28t58 8.5q157 0 219 -158l134 -342l133 342q62 158 219 158q30 0 58 -8.5t54.5 -28t43 -57.5t16.5 -90v-558q0 -59 -32 -96t-77 -37t-76.5 37
t-31.5 96z" />
    <glyph glyph-name="Omega" unicode="&#x2126;" horiz-adv-x="1230" 
d="M301 199v6q-92 109 -151.5 262t-59.5 336q0 184 66 335.5t188 240.5t277 89q123 0 223.5 -58.5t162.5 -153t95 -207.5t33 -230q0 -186 -63 -349t-152 -265v-6h239v-199h-457v143q84 69 141.5 229t57.5 392q0 98 -18 186t-52 158.5t-89.5 112t-125.5 41.5
q-134 0 -213 -141.5t-79 -366.5q0 -214 58 -380t138 -231v-143h-457v199h238z" />
    <glyph glyph-name="estimated" unicode="&#x212e;" horiz-adv-x="1810" 
d="M1739 702h-1352q-10 0 -10 -8v-409q0 -27 18 -45q99 -105 231 -164.5t279 -59.5q158 0 297 66.5t240 183.5h121q-115 -134 -288.5 -212.5t-371.5 -78.5q-227 0 -418.5 100t-303 272t-111.5 376q0 205 111.5 378t303 273.5t418.5 100.5q170 0 324.5 -59.5t266.5 -160
t178.5 -240t66.5 -292.5v-21zM1432 756v411q0 29 -21 50q-101 100 -231.5 156.5t-274.5 56.5q-145 0 -276 -59t-232 -163q-20 -17 -20 -49v-403q0 -4 3 -8.5t7 -4.5h1036q9 0 9 13z" />
    <glyph glyph-name="partialdiff" unicode="&#x2202;" horiz-adv-x="1036" 
d="M193 1335l-64 187q135 112 324 112q97 0 183.5 -46.5t156 -138.5t110.5 -245.5t41 -349.5q0 -410 -131 -640t-371 -230q-71 0 -131.5 27.5t-103.5 74t-73.5 108.5t-45 131.5t-14.5 141.5q0 125 32 230t86 173.5t125 106t150 37.5q91 0 157 -45.5t93 -96.5h2v68
q0 129 -36 241t-105 182.5t-156 70.5q-122 0 -229 -99zM465 188h2q49 0 90.5 41.5t70 110.5t47 150.5t25.5 168.5q-16 59 -67.5 108.5t-124.5 49.5q-60 0 -108 -51.5t-73.5 -133.5t-25.5 -175q0 -118 44.5 -193.5t119.5 -75.5z" />
    <glyph glyph-name="Delta" unicode="&#x2206;" horiz-adv-x="1167" 
d="M51 0v143l406 1334h270l387 -1327v-150h-1063zM283 195h596l-191 608q-14 59 -53 196t-49 183h-4q-8 -44 -46 -170.5t-51 -180.5z" />
    <glyph glyph-name="product" unicode="&#x220f;" horiz-adv-x="1302" 
d="M1249 1227h-176v-1428h-229v1428h-387v-1428h-230v1428h-176v221h1198v-221z" />
    <glyph glyph-name="summation" unicode="&#x2211;" horiz-adv-x="999" 
d="M963 -201h-916v162l436 668l-424 647v172h875v-203h-574v-6l379 -565l-424 -639v-8h648v-228z" />
    <glyph glyph-name="minus" unicode="&#x2212;" horiz-adv-x="1228" 
d="M178 688h873q63 0 103 -31.5t40 -76.5t-40 -77t-103 -32h-873q-63 0 -103 32t-40 77t40 76.5t103 31.5z" />
    <glyph glyph-name="uni2215" unicode="&#x2215;" horiz-adv-x="342" 
d="M-213 45l621 1428q24 53 88 53q34 0 52.5 -19t18.5 -45q0 -32 -12 -59l-621 -1428q-24 -53 -88 -53q-34 0 -52.5 19t-18.5 45q0 32 12 59z" />
    <glyph glyph-name="uni2219" unicode="&#x2219;" 
d="M90 625q0 64 45.5 109.5t110.5 45.5q64 0 109.5 -45t45.5 -110t-45.5 -110.5t-109.5 -45.5t-110 45.5t-46 110.5z" />
    <glyph glyph-name="radical" unicode="&#x221a;" horiz-adv-x="1083" 
d="M1085 1741l-401 -2026h-184l-264 912l-136 -54l-37 140l314 125l178 -637q6 -33 19 -100t16 -91l4 -2q2 13 6.5 51.5t10 77.5t10.5 74l307 1530h157z" />
    <glyph glyph-name="infinity" unicode="&#x221e;" horiz-adv-x="1484" 
d="M1395 600v-2q0 -150 -91.5 -242t-216.5 -92q-89 0 -168.5 48t-170.5 169q-57 -69 -103.5 -112t-113 -74t-140.5 -31q-122 0 -211.5 92.5t-89.5 231.5q0 145 91 237.5t227 92.5q99 0 180.5 -54.5t163.5 -158.5q5 6 16 18q32 36 50 55.5t53 50.5t65 47t73 29t89 13
q128 0 212.5 -88.5t84.5 -229.5zM410 397h2q39 0 74 14t72 47.5t56 54.5t60 69q-34 46 -48 65t-45.5 53t-54 48.5t-56 27t-69.5 12.5q-83 0 -129.5 -56.5t-46.5 -145.5q0 -78 53.5 -133.5t131.5 -55.5zM1085 788h-2q-24 0 -47.5 -6t-46.5 -21t-39.5 -26.5t-39.5 -35.5
t-32.5 -35t-32 -38.5t-26.5 -31.5q91 -113 146.5 -155t126.5 -42q76 0 122 59.5t46 131.5q0 88 -48.5 144t-126.5 56z" />
    <glyph glyph-name="integral" unicode="&#x222b;" horiz-adv-x="757" 
d="M700 1765l-24 -170q-27 17 -62 17q-58 0 -92 -51q-49 -69 -49 -353q0 -164 12.5 -488.5t12.5 -514.5q0 -285 -68 -418q-35 -72 -100.5 -106.5t-141.5 -34.5q-83 0 -137 30l29 177q3 -1 14.5 -5.5t18.5 -6.5t20 -4.5t25 -2.5q54 0 78 41q47 71 47 326q0 190 -12.5 523.5
t-12.5 506.5q0 180 25.5 287t85.5 176q37 45 96.5 69.5t122.5 24.5q66 0 112 -23z" />
    <glyph glyph-name="approxequal" unicode="&#x2248;" horiz-adv-x="1003" 
d="M846 909l84 -71q-41 -91 -105.5 -148t-142.5 -57q-52 0 -95 17t-108 59q-52 35 -85 51t-72 16q-29 0 -53 -10.5t-46 -36t-33 -41t-34 -53.5l-84 72q40 91 109 146.5t153 55.5q26 0 50 -4.5t46.5 -14t36.5 -16.5t35.5 -20t27.5 -16q7 -5 25 -16t25 -15t21.5 -12.5
t22.5 -11.5t19.5 -7.5t21.5 -6t21 -1.5q49 0 84 34.5t76 106.5zM846 553l84 -72q-41 -92 -105 -148.5t-143 -56.5q-51 0 -93.5 17.5t-109.5 60.5q-36 25 -55 36.5t-47 21.5t-55 10q-29 0 -53 -10.5t-46 -35.5t-33.5 -42.5t-33.5 -54.5l-84 71q40 91 109 147t153 56
q26 0 50 -4.5t47 -14t36 -15.5t35.5 -19.5l27.5 -16.5l28 -17.5l28 -17.5t24 -14t26 -12.5t23.5 -6.5t26.5 -3q49 0 84 34.5t76 106.5z" />
    <glyph glyph-name="notequal" unicode="&#x2260;" horiz-adv-x="1003" 
d="M737 1026l-71 -168h247v-141h-295l-110 -260h405v-140h-454l-88 -213l-109 41l74 172h-246v140h295l109 260h-404v141h453l88 209z" />
    <glyph glyph-name="lessequal" unicode="&#x2264;" horiz-adv-x="1003" 
d="M907 207l-807 438v150l807 438v-166l-676 -344v-4l676 -344v-168zM915 -8h-823v141h823v-141z" />
    <glyph glyph-name="greaterequal" unicode="&#x2265;" horiz-adv-x="1003" 
d="M104 1233l807 -438v-150l-807 -438v168l674 344v4l-674 344v166zM915 -8h-821v141h821v-141z" />
    <glyph glyph-name="lozenge" unicode="&#x25ca;" horiz-adv-x="1081" 
d="M987 723l-358 -815h-191l-342 815l357 817h190zM780 717l-198 483q-20 61 -35 135h-6q-13 -69 -37 -135l-203 -471l201 -491q19 -61 33 -129h8q17 87 32 122z" />
    </font>
</defs>
</svg>
